Поиск

2015 Eric Marienthal & Chuck Loeb - Bridges {Shanachie SH 5436}

2015 Eric Marienthal & Chuck Loeb - Bridges {Shanachie SH 5436}
Страна-производитель диска (релиза):
USA
Дата издания диска:
21 августа 2015
Издатель (лейбл):
Номер по каталогу:
SH 5436
Носитель:
CD
Битрейт аудио:
lossless
Аудиокодек:
FLAC (*.flac)
Тип рипа:
image+.cue
Время звучания:
55:30
Наличие сканов:
  • да
Релизёр (источник):
RedHotBlues

Треклист:

01. Westward [0:06:04.05]
02. Crossing [0:04:47.59]
03. Puentes [0:05:40.31]
04. Last Minute Blues [0:06:42.47]
05. Daily Bread [0:03:28.00]
06. Lucky Southern [0:05:58.38]
07. Salamanca [0:05:53.35]
08. Duality [0:04:51.01]
09. Sun Rays [0:05:50.61]
10. Noir [0:06:11.44]

Состав:
  • David Charles    Percussion, Percussion Engineer
  • Byron Landham    Drums
  • Chuck Loeb    Amplifiers, Cajon, Composer, Engineer, Guitar, Liner Notes, Pedals, Producer, Strings
  • Phil Magnotti    Engineer, Mixing
  • Eric Marienthal    Clarinet, Composer, Engineer, Flute, Liner Notes, Percussion, Producer, Sax (Alto), Sax (Baritone), Sax (Soprano), Sax (Tenor)
  • John Patitucci    Bass, Composer
Лог создания рипа
Exact Audio Copy V1.1 from 23. June 2015

Отчёт EAC об извлечении, выполненном 30. сентября 2015, 0:43

Eric Marienthal & Chuck Loeb / Bridges

Дисковод: ATAPI   iHAS122   E   Adapter: 1  ID: 1

Режим чтения                 : Достоверность
Использование точного потока : Да
Отключение кэша аудио        : Да
Использование указателей C2  : Нет

Коррекция смещения при чтении                     : 6
Способность читать области Lead-in и Lead-out     : Нет
Заполнение пропущенных сэмплов тишиной            : Да
Удаление блоков с тишиной в начале и конце        : Нет
При вычислениях CRC использовались нулевые сэмплы : Да
Интерфейс                                         : Встроенный Win32-интерфейс для Win NT/2000

Выходной формат          : Пользовательский кодировщик
Выбранный битрейт        : 768 kBit/s
Качество                 : Высокий
Добавление ID3-тега      : Нет
Утилита сжатия           : C:\Exact Audio Copy\FLAC\FLAC.EXE
Дополнительные параметры : -6 -V -T "ARTIST=%artist%" -T "TITLE=%title%" -T "ALBUM=%albumtitle%" -T "DATE=%year%" -T "TRACKNUMBER=%tracknr%" -T "GENRE=%genre%" -T "COMMENT=%comment%" -T "BAND=%albuminterpret%" -T "ALBUMARTIST=%albuminterpret%" -T "COMPOSER=%composer%" %haslyrics%--tag-from-file=LYRICS="%lyricsfile%"%haslyrics% -T "DISCNUMBER=%cdnumber%" -T "TOTALDISCS=%totalcds%" -T "TOTALTRACKS=%numtracks%" %hascover%--picture="%coverfile%"%hascover% %source% -o %dest%

TOC извлечённого CD

     Трек |   Старт  | Длительность | Начальный сектор | Конечный сектор
    ---------------------------------------------------------------------
       1  |  0:00.00 |    6:04.05   |           0      |      27304
       2  |  6:04.05 |    4:47.59   |       27305      |      48888
       3  | 10:51.64 |    5:40.31   |       48889      |      74419
       4  | 16:32.20 |    6:42.47   |       74420      |     104616
       5  | 23:14.67 |    3:28.00   |      104617      |     120216
       6  | 26:42.67 |    5:58.38   |      120217      |     147104
       7  | 32:41.30 |    5:53.35   |      147105      |     173614
       8  | 38:34.65 |    4:51.01   |      173615      |     195440
       9  | 43:25.66 |    5:50.61   |      195441      |     221751
      10  | 49:16.52 |    6:11.44   |      221752      |     249620

Характеристики диапазона извлечения и сообщения об ошибках

Выбранный диапазон

     Имя файла C:\Users\Евгений\Desktop\Eric Marienthal & Chuck Loeb - Bridges - 2015 - 55'30''\Eric Marienthal & Chuck Loeb - Bridges.wav

     Пиковый уровень 92.2 %
     Скорость извлечения 3.3 X
     Качество диапазона 99.9 %
     CRC теста 25F2AF17
     CRC копии 25F2AF17
     Копирование... OK

Ошибок не произошло

Конец отчёта

---- CUETools DB Plugin V2.1.6

[CTDB TOCID: zegQPszKmVDOeGDGJFe5Q77Lj9w-] found
Submit result: zegQPszKmVDOeGDGJFe5Q77Lj9w- has been confirmed
Track | CTDB Status
  1   | (5/5) Accurately ripped
  2   | (5/5) Accurately ripped
  3   | (5/5) Accurately ripped
  4   | (5/5) Accurately ripped
  5   | (5/5) Accurately ripped
  6   | (5/5) Accurately ripped
  7   | (5/5) Accurately ripped
  8   | (5/5) Accurately ripped
  9   | (5/5) Accurately ripped
 10   | (5/5) Accurately ripped

==== Контрольная сумма отчёта 7C1EBEF660B8960FFC9EAA16CEECC3145A65298E39F7B3E2BF4267DEBEF419D3 ====
Лог проверки качества
-----------------------

DON'T MODIFY THIS FILE

-----------------------

PERFORMER: auCDtect Task Manager, ver. 1.5.1RC4 build 1.5.1.5
Copyright (c) 2008-2010 y-soft. All rights reserved
http://y-soft.org

ANALYZER: auCDtect: CD records authenticity detector, version 0.8.2
Copyright (c) 2004 Oleg Berngardt. All rights reserved.
Copyright (c) 2004 Alexander Djourik. All rights reserved.

FILE: Eric Marienthal & Chuck Loeb - Bridges.flac
  Size: 344202632 Hash: 4D43EE3B9923730947D468DB4C37E1F1 Accuracy: -m0
  Conclusion: CDDA 99%
  Signature: 6FE5B9EECD664DBFDA327091BD37756B64052855
Приватный:
Нет (DHT включён)
Размер:
365.89 Мб (383,658,509 байт) » файлов: 13
Участники:
0 раздают, 0 качают (0 участников всего)
Внешние участники:
Нет внешних трекеров [ Обновить ]
10:22
54
RSS
Нет комментариев. Ваш будет первым!