Поиск

2017 Anouar Brahem - Blue Maqams {ECM 2580}

2017 Anouar Brahem - Blue Maqams {ECM 2580}
Страна-производитель диска (релиза):
Germany
Дата записи диска:
май 2017
Дата издания диска:
13 октября 2017
Издатель (лейбл):
Номер по каталогу:
ECM 2580
Носитель:
CD
Битрейт аудио:
lossless
Аудиокодек:
FLAC (*.flac)
Тип рипа:
tracks+.cue
Время звучания:
77:01
Наличие сканов:
  • да
Релизёр (источник):
pastacube
Треклист:

01. Opening Day (Brahem) - 7:01
02. La Nuit (Brahem) - 10:29
03. Blue Maqams (Brahem) - 8:42
04. Bahia (Brahem) - 8:46
05. La Passante (Brahem) - 4:06
06. Bom Dia Rio (Brahem) - 9:24
07. Persepolis's Mirage (Brahem) - 8:07
08. The Recovered Road to Al-Sham (Brahem) - 9:27
09. Unexpected Outcome (Brahem) - 10:59

Состав:

Recorded at Avatar Studios, New York in May 2017.

Лог создания рипа
Exact Audio Copy V1.3 from 2. September 2016
EAC extraction logfile from 23. October 2017, 14:53
Anouar Brahem / Blue Maqams
Used drive  : ASUS    BW-16D1HT   Adapter: 1  ID: 0
Read mode               : Secure
Utilize accurate stream : Yes
Defeat audio cache      : Yes
Make use of C2 pointers : No
Read offset correction                      : 6
Overread into Lead-In and Lead-Out          : No
Fill up missing offset samples with silence : Yes
Delete leading and trailing silent blocks   : No
Null samples used in CRC calculations       : Yes
Used interface                              : Native Win32 interface for Win NT & 2000
Gap handling                                : Appended to previous track
Used output format              : User Defined Encoder
Selected bitrate                : 1024 kBit/s
Quality                         : High
Add ID3 tag                     : No
Command line compressor         : C:\Program Files (x86)\Exact Audio Copy\FLAC\flac.exe
Additional command line options : -8 -V -T "ARTIST=%artist%" -T "TITLE=%title%" -T "ALBUM=%albumtitle%" -T "DATE=%year%" -T "TRACKNUMBER=%tracknr%" -T "GENRE=%genre%" -T "PERFORMER=%albuminterpret%" -T "COMPOSER=%composer%" %haslyrics%--tag-from-file=LYRICS="%lyricsfile%"%haslyrics% -T "ALBUMARTIST=%albumartist%" -T "ALBUM ARTIST=%albumartist%" -T "DISCNUMBER=%cdnumber%" -T "TOTALDISCS=%totalcds%" -T "TOTALTRACKS=%numtracks%" -T "COMMENT=EAC V1.0 beta 2, Secure Mode, Test & Copy, AccurateRip, FLAC -8" %source% -o %dest%
TOC of the extracted CD
     Track |   Start  |  Length  | Start sector | End sector
    ---------------------------------------------------------
        1  |  0:00.00 |  7:01.36 |         0    |    31610
        2  |  7:01.36 | 10:28.60 |     31611    |    78770
        3  | 17:30.21 |  8:41.43 |     78771    |   117888
        4  | 26:11.64 |  8:45.44 |    117889    |   157307
        5  | 34:57.33 |  4:05.64 |    157308    |   175746
        6  | 39:03.22 |  9:23.38 |    175747    |   218009
        7  | 48:26.60 |  8:06.72 |    218010    |   254531
        8  | 56:33.57 |  9:26.40 |    254532    |   297021
        9  | 66:00.22 | 10:59.04 |    297022    |   346450
Track  1
     Filename C:\pastacube\Anouar Brahem - Blue Maqams (2017) [FLAC]\01 - Opening Day.wav
     Pre-gap length  0:00:02.00
     Peak level 78.8 %
     Extraction speed 5.4 X
     Track quality 100.0 %
     Test CRC F7EE9D28
     Copy CRC F7EE9D28
     Track not present in AccurateRip database
     Copy OK
Track  2
     Filename C:\pastacube\Anouar Brahem - Blue Maqams (2017) [FLAC]\02 - La Nuit.wav
     Peak level 72.8 %
     Extraction speed 6.1 X
     Track quality 99.9 %
     Test CRC 595CAAE2
     Copy CRC 595CAAE2
     Track not present in AccurateRip database
     Copy OK
Track  3
     Filename C:\pastacube\Anouar Brahem - Blue Maqams (2017) [FLAC]\03 - Blue Maqams.wav
     Peak level 57.9 %
     Extraction speed 6.7 X
     Track quality 99.9 %
     Test CRC 55E2E078
     Copy CRC 55E2E078
     Track not present in AccurateRip database
     Copy OK
Track  4
     Filename C:\pastacube\Anouar Brahem - Blue Maqams (2017) [FLAC]\04 - Bahia.wav
     Peak level 85.7 %
     Extraction speed 8.1 X
     Track quality 100.0 %
     Test CRC 43877F14
     Copy CRC 43877F14
     Track not present in AccurateRip database
     Copy OK
Track  5
     Filename C:\pastacube\Anouar Brahem - Blue Maqams (2017) [FLAC]\05 - La Passante.wav
     Peak level 30.0 %
     Extraction speed 8.0 X
     Track quality 100.0 %
     Test CRC 4A83A094
     Copy CRC 4A83A094
     Track not present in AccurateRip database
     Copy OK
Track  6
     Filename C:\pastacube\Anouar Brahem - Blue Maqams (2017) [FLAC]\06 - Bom Dia Rio.wav
     Peak level 88.2 %
     Extraction speed 9.1 X
     Track quality 100.0 %
     Test CRC 017C2631
     Copy CRC 017C2631
     Track not present in AccurateRip database
     Copy OK
Track  7
     Filename C:\pastacube\Anouar Brahem - Blue Maqams (2017) [FLAC]\07 - Persepolis's Mirage.wav
     Peak level 81.8 %
     Extraction speed 9.6 X
     Track quality 100.0 %
     Test CRC DD3CA013
     Copy CRC DD3CA013
     Track not present in AccurateRip database
     Copy OK
Track  8
     Filename C:\pastacube\Anouar Brahem - Blue Maqams (2017) [FLAC]\08 - The Recovered Road To Al-Sham.wav
     Peak level 86.1 %
     Extraction speed 10.2 X
     Track quality 100.0 %
     Test CRC FAB1FC7B
     Copy CRC FAB1FC7B
     Track not present in AccurateRip database
     Copy OK
Track  9
     Filename C:\pastacube\Anouar Brahem - Blue Maqams (2017) [FLAC]\09 - Unexpected Outcome.wav
     Peak level 83.1 %
     Extraction speed 10.8 X
     Track quality 100.0 %
     Test CRC C4723AD7
     Copy CRC C4723AD7
     Track not present in AccurateRip database
     Copy OK
None of the tracks are present in the AccurateRip database
No errors occurred
End of status report
---- CUETools DB Plugin V2.1.6
[CTDB TOCID: 4QMU7fT9ZIRXI9CQQ79.1x0NJvU-] found
Submit result: 4QMU7fT9ZIRXI9CQQ79.1x0NJvU- has been confirmed
Track | CTDB Status
  1   | (19/19) Accurately ripped
  2   | (19/19) Accurately ripped
  3   | (19/19) Accurately ripped
  4   | (19/19) Accurately ripped
  5   | (19/19) Accurately ripped
  6   | (19/19) Accurately ripped
  7   | (19/19) Accurately ripped
  8   | (19/19) Accurately ripped
  9   | (19/19) Accurately ripped
==== Log checksum 68EDC23B046C3E59800A016C7EEB6D93EA7EDAF5A1E6361759EF85E31DBE99AD ====
Содержание индексной карты (.CUE)
REM GENRE Jazz
REM DATE 2017
REM DISCID 80120B09
REM COMMENT "ExactAudioCopy v1.3"
CATALOG 0602557672657
PERFORMER "Anouar Brahem"
TITLE "Blue Maqams"
FILE "01 - Opening Day.wav" WAVE
  TRACK 01 AUDIO
    TITLE "Opening Day"
    PERFORMER "Anouar Brahem"
    ISRC DEB331758001
    INDEX 01 00:00:00
FILE "02 - La Nuit.wav" WAVE
  TRACK 02 AUDIO
    TITLE "La Nuit"
    PERFORMER "Anouar Brahem"
    ISRC DEB331758002
    INDEX 01 00:00:00
FILE "03 - Blue Maqams.wav" WAVE
  TRACK 03 AUDIO
    TITLE "Blue Maqams"
    PERFORMER "Anouar Brahem"
    ISRC DEB331758003
    INDEX 01 00:00:00
FILE "04 - Bahia.wav" WAVE
  TRACK 04 AUDIO
    TITLE "Bahia"
    PERFORMER "Anouar Brahem"
    ISRC DEB331758004
    INDEX 01 00:00:00
FILE "05 - La Passante.wav" WAVE
  TRACK 05 AUDIO
    TITLE "La Passante"
    PERFORMER "Anouar Brahem"
    ISRC DEB331758005
    INDEX 01 00:00:00
FILE "06 - Bom Dia Rio.wav" WAVE
  TRACK 06 AUDIO
    TITLE "Bom Dia Rio"
    PERFORMER "Anouar Brahem"
    ISRC DEB331758005
    INDEX 01 00:00:00
FILE "07 - Persepolis's Mirage.wav" WAVE
  TRACK 07 AUDIO
    TITLE "Persepolis's Mirage"
    PERFORMER "Anouar Brahem"
    ISRC DEB331758007
    INDEX 01 00:00:00
FILE "08 - The Recovered Road to Al-Sham.wav" WAVE
  TRACK 08 AUDIO
    TITLE "The Recovered Road to Al-Sham"
    PERFORMER "Anouar Brahem"
    ISRC DEB331758008
    INDEX 01 00:00:00
FILE "09 - Unexpected Outcome.wav" WAVE
  TRACK 09 AUDIO
    TITLE "Unexpected Outcome"
    PERFORMER "Anouar Brahem"
    ISRC DEB331758009
    INDEX 01 00:00:00
Лог проверки качества
[CUETools log; Date: 24.10.2017 0:39:35; Version: 2.1.5]
[CTDB TOCID: 4QMU7fT9ZIRXI9CQQ79.1x0NJvU-] found.
Track | CTDB Status
  1   | (21/21) Accurately ripped
  2   | (21/21) Accurately ripped
  3   | (21/21) Accurately ripped
  4   | (21/21) Accurately ripped
  5   | (21/21) Accurately ripped
  6   | (21/21) Accurately ripped
  7   | (21/21) Accurately ripped
  8   | (21/21) Accurately ripped
  9   | (21/21) Accurately ripped
[AccurateRip ID: 0019981d-00bbde54-80120b09] disk not present in database.
Track Peak [ CRC32  ] [W/O NULL] [  LOG   ]
 --   88,2 [95A1B7A5] [248C18BB]
 01   78,8 [F7EE9D28] [47D813D5]   CRC32
 02   72,8 [595CAAE2] [6B9FAF20]   CRC32
 03   57,9 [55E2E078] [C5A8B823]   CRC32
 04   85,7 [43877F14] [0204BD1F]   CRC32
 05   30,0 [4A83A094] [8D1842C3]   CRC32
 06   88,2 [017C2631] [33E03310]   CRC32
 07   81,8 [DD3CA013] [D8BD0360]   CRC32
 08   86,1 [FAB1FC7B] [E5056BA7]   CRC32
 09   83,1 [C4723AD7] [ED9690D5]   CRC32
Приватный:
Нет (DHT включён)
Размер:
484.13 Мб (507,649,507 байт) » файлов: 31
Участники:
0 раздают, 0 качают (0 участников всего)
Внешние участники:
Нет внешних трекеров [ Обновить ]
00:57
169
RSS
Нет комментариев. Ваш будет первым!