Вы используете незарегистрированную версию компонента "Вкладки"!

Поиск

1982 Ulrich Lask - Lask (2019 ) {ECM} [24-96]

1982 Ulrich Lask - Lask (2019 ) {ECM} [24-96]
Стили:
Издатель (лейбл):
Номер по каталогу:
1217
Носитель:
WEB
Формат:
PCM
Тип рипа:
tracks+.cue
Контейнер:
FLAC (*.flac)
Количество каналов:
2.0
Разрядность/ЧД:
24/96
Битрейт аудио:
lossless
Время звучания:
00:37:15
Наличие сканов:
web
Страна-производитель диска (релиза):
Germany
Релизёр (источник):
M0p94ok
Лог проверки качества
foobar2000 1.4.3 / Dynamic Range Meter 1.1.1
log date: 2020-03-30 16:16:34

--------------------------------------------------------------------------------
Analyzed: Ulrich Lask / Lask
--------------------------------------------------------------------------------

DR         Peak         RMS     Duration Track
--------------------------------------------------------------------------------
DR13      -1.11 dB   -16.65 dB      5:46 01-Drain Brain
DR14      -1.71 dB   -18.32 dB      3:55 02-Tattooed Lady
DR12      -4.59 dB   -21.60 dB      2:00 03-Kidnapped
DR13      -2.00 dB   -17.38 dB      8:08 04-Should We Geanie?
DR13      -2.02 dB   -17.06 dB      7:25 05-Unknown Realms (Shirli Sees)
DR13      -0.71 dB   -15.80 dB      4:32 06-Poor Child
DR14      -0.89 dB   -16.85 dB      5:31 07-Too Much - Not Enough
--------------------------------------------------------------------------------

Number of tracks:  7
Official DR value: DR13

Samplerate:        96000 Hz
Channels:          2
Bits per sample:   24
Bitrate:           2986 kbps
Codec:             FLAC
================================================================================
Any questions - support@pro-jazz.com. Есть вопросы - support@pro-jazz.com
16:35
276
Нет комментариев. Ваш будет первым!