Вы используете незарегистрированную версию компонента "Вкладки"!

Поиск

2019 Bill Laurance & WDR Big Band - Live At The Philharmonie, Cologne {Jazzline} [24-48]

2019 Bill Laurance & WDR Big Band - Live At The Philharmonie, Cologne {Jazzline} [24-48]
Стили:
Доп. инфо:

Формат записи/Источник записи: [TR24][OF]
Наличие водяных знаков: Нет
Год издания/переиздания диска: 2019
Издатель (лейбл): Jazzline
Продолжительность: 01:07:32
Наличие сканов в содержимом раздачи: Буклет PDF

Контейнер: FLAC (*.flac)
Тип рипа: tracks
Разрядность: 24/48
Формат: PCM
Количество каналов: 2.0

Источник: qobuz.com

Лог проверки качества
foobar2000 1.3.9 / Dynamic Range Meter 1.1.1
log date: 2020-02-01 00:29:22

--------------------------------------------------------------------------------
Analyzed: Bill Laurance & WDR Big Band / Live At The Philharmonie, Cologne
--------------------------------------------------------------------------------

DR         Peak         RMS     Duration Track
--------------------------------------------------------------------------------
DR11      -0.69 dB   -15.61 dB      7:09 01-The Good Things
DR11      -0.69 dB   -13.59 dB      7:03 02-Denmark Hill
DR10      -1.29 dB   -14.40 dB     10:03 03-Ready Wednesday
DR11      -0.69 dB   -13.32 dB      5:58 04-Swagtimes
DR10      -0.69 dB   -13.68 dB      6:46 05-Money In The Desert
DR12      -0.69 dB   -15.96 dB      7:56 06-Golden Hour
DR10      -0.69 dB   -14.09 dB      7:19 07-The Rush
DR10      -0.69 dB   -13.61 dB      5:32 08-Swift
DR11      -0.69 dB   -15.36 dB      9:46 09-Red Sand
--------------------------------------------------------------------------------

Number of tracks:  9
Official DR value: DR11

Samplerate:        48000 Hz
Channels:          2
Bits per sample:   24
Bitrate:           1555 kbps
Codec:             FLAC
================================================================================
Any questions - support@pro-jazz.com. Есть вопросы - support@pro-jazz.com
17:29
293
Нет комментариев. Ваш будет первым!