Поиск

1982 Hajo Weber & Ulrich Ingenbold - Winterreise (2019) {ECM} [24-96]

1982 Hajo Weber & Ulrich Ingenbold - Winterreise (2019) {ECM} [24-96]
Стили:
Издатель (лейбл):
Битрейт аудио:
lossless

Треклист:

01. Der wundersame Weg - 4:57
02. Karussell - 7:29
03. Winterreise - 4:22
04. Zweifel - 4:14
05. Sommerregen - 5:52
06. Drehung in der Luft - 6:02
07. Filmmusik - 4:39
08. Son's Song - 4:29

Доп. инфо:

Формат записи/Источник записи: [TR24][OF]
Наличие водяных знаков: Нет
Год издания/переиздания диска: 1982/2019
Продолжительность: 00:42:04
Наличие сканов в содержимом раздачи: Только обложка альбома

Контейнер: FLAC (*.flac)
Тип рипа: tracks
Разрядность: 24/96
Формат: PCM
Количество каналов: 2.0

Источник (релизер): qobuz

Лог проверки качества
foobar2000 1.6.2 / Dynamic Range Meter 1.1.1
log date: 2020-12-28 21:11:33

--------------------------------------------------------------------------------
Analyzed: Hajo Weber & Ulrich Ingenbold / Winterreise
--------------------------------------------------------------------------------

DR         Peak         RMS     Duration Track
--------------------------------------------------------------------------------
DR13      -5.20 dB   -23.76 dB      4:57 01-Der wundersame Weg
DR11      -0.70 dB   -15.51 dB      7:29 02-Karussell
DR14      -2.12 dB   -20.59 dB      4:22 03-Winterreise
DR13      -9.96 dB   -29.17 dB      4:14 04-Zweifel
DR12      -3.11 dB   -19.87 dB      5:52 05-Sommerregen
DR13      -4.40 dB   -22.31 dB      6:02 06-Drehung in der Luft
DR13      -0.73 dB   -18.70 dB      4:39 07-Filmmusik
DR12      -4.12 dB   -20.80 dB      4:29 08-Son's Song
--------------------------------------------------------------------------------

Number of tracks:  8
Official DR value: DR13

Samplerate:        96000 Hz
Channels:          2
Bits per sample:   24
Bitrate:           2611 kbps
Codec:             FLAC
================================================================================
Приватный:
Нет (DHT включён)
Размер:
805.63 Мб (844,763,272 байт) » файлов: 12
Участники:
0 раздают, 1 качают (1 участников всего)
Внешние участники:
3 раздают, 1 качают (4 участников всего) [ Обновить ]
No seeders - write personal message to M0p94ok. Any questions - support@pro-jazz.com.
Нет сидеров - пишите в личку M0p94ok. Есть вопросы - support@pro-jazz.com
20:49
122
Нет комментариев. Ваш будет первым!