Поиск

2020 Mammal Hands - Captured Spirits {Gondwana GONDCD038} [24-96]

2020 Mammal Hands - Captured Spirits {Gondwana GONDCD038} [24-96]
Стили:
Дата издания диска:
11 сентября 2020
Битрейт аудио:
lossless

Треклист:

01. Ithaca (04:52)
02. Chaser (03:43)
03. Late Bloomer (05:00)
04. Versus Shapes (03:25)
05. Spiral Stair (04:38)
06. Floating World (01:58)
07. Riddle (06:14)
08. Rhizome (06:27)
09. Shoreless (01:43)
10. Into Sparks (04:25)
11. Little One (05:59)

Доп. инфо:

Формат записи/Источник записи: [TR24][OF]
Наличие водяных знаков: Нет
Год издания/переиздания диска: 2020
Издатель (лейбл): Gondwana Records ‎– GONDCD038
Продолжительность: 00:48:24
Наличие сканов в содержимом раздачи: Только обложка альбома

Контейнер: FLAC (*.flac)
Тип рипа: tracks
Разрядность: 24/96
Формат: PCM
Количество каналов: 2.0

https://mammalhands.bandcamp.com/album/captured-spirits

Лог проверки качества
foobar2000 1.4.5 / Замер динамического диапазона (DR) 1.1.1
Дата отчёта:  2020-12-29 00:43:13

--------------------------------------------------------------------------------
Анализ:   Mammal Hands / Captured Spirits
--------------------------------------------------------------------------------

DR         Пики         RMS           Продолжительность трека
--------------------------------------------------------------------------------
DR6       -0.20 дБ    -9.28 дБ      4:53 1-Ithaca
DR7       -0.20 дБ    -9.31 дБ      3:43 2-Chaser
DR7       -0.16 дБ    -9.69 дБ      5:01 3-Late Bloomer
DR8       -0.19 дБ    -9.84 дБ      3:26 4-Versus Shapes
DR8       -0.20 дБ   -10.66 дБ      4:39 5-Spiral Stair
DR9       -0.20 дБ   -10.68 дБ      1:59 6-Floating World
DR7       -0.19 дБ    -9.35 дБ      6:15 7-Riddle
DR7       -0.19 дБ    -8.98 дБ      6:28 8-Rhizome
DR12      -0.20 дБ   -15.69 дБ      1:43 9-Shoreless
DR7       -0.18 дБ   -11.78 дБ      4:25 10-Into Sparks
DR10      -0.19 дБ   -11.99 дБ      6:00 11-Little One
--------------------------------------------------------------------------------

Количество треков: 11
Реальные значения DR: DR8

Частота:   96000 Гц
Каналов:   2
Разрядность:   24
Битрейт:   2660 кбит/с
Кодек:   FLAC
================================================================================
Приватный:
Нет (DHT включён)
Размер:
1.00 Гб (1,074,976,397 байт) » файлов: 12
Участники:
2 раздают, 0 качают (2 участников всего)
Внешние участники:
5 раздают, 2 качают (7 участников всего) [ Обновить ]
No seeders - write personal message to M0p94ok. Any questions - support@pro-jazz.com.
Нет сидеров - пишите в личку M0p94ok. Есть вопросы - support@pro-jazz.com
11:17
111
Нет комментариев. Ваш будет первым!