Поиск

1974 Eumir Deodato, Airto Moreira - In Concert (2017) {CTI} [24-192]

1974 Eumir Deodato, Airto Moreira - In Concert (2017) {CTI} [24-192]
Место записи:
Madison Square Garden
Издатель (лейбл):
Битрейт аудио:
lossless
Доп. инфо:

Формат записи/Источник записи: [TR24][OF]
Издание: Remastered
Год издания/переиздания диска: 1974/2017
Продолжительность: 00:35:00
Наличие сканов в содержимом раздачи: Нет

Контейнер: FLAC (*.flac)
Тип рипа: tracks
Разрядность: 24/192
Количество каналов: 2.0

Источник (релизер): King Records

Лог проверки качества
foobar2000 1.4.3 / Dynamic Range Meter 1.1.1
log date: 2020-12-25 10:35:21

--------------------------------------------------------------------------------
Analyzed: Eumir Deodato, Airto Moreira / In Concert
--------------------------------------------------------------------------------

DR         Peak         RMS     Duration Track
--------------------------------------------------------------------------------
DR11      -0.10 dB   -13.58 dB      6:35 01-Do It Again
DR14      -0.29 dB   -19.96 dB      5:39 02-Spirit Of Summer
DR14      -0.93 dB   -17.85 dB      6:52 03-Paranà
DR10      -0.10 dB   -13.82 dB      8:42 04-Tropea
DR13      -3.99 dB   -21.71 dB      7:15 05-Branches (O Galho Da Roseira)
--------------------------------------------------------------------------------

Number of tracks:  5
Official DR value: DR12

Samplerate:        192000 Hz
Channels:          2
Bits per sample:   24
Bitrate:           5343 kbps
Codec:             FLAC
================================================================================
No seeders - write personal message to M0p94ok. Any questions - support@pro-jazz.com.
Нет сидеров - пишите в личку M0p94ok. Есть вопросы - support@pro-jazz.com
18:12
149
Нет комментариев. Ваш будет первым!