Поиск

1981 Rainer Bruninghaus - Freigeweht {Polygram, Decca, ECM, Universal Music 8473292}

1981 Rainer Bruninghaus - Freigeweht {Polygram, Decca, ECM, Universal Music 8473292}
Стили:
Издатель (лейбл):
Треклист:

Страна-производитель диска: Germany
Место записи: Talent Studio, Oslo, Norway
Год издания: 1981
Номер по каталогу: 1187 (847 329-2)
Страна: Germany/Canada/Norway
Аудиокодек: FLAC (*.flac)
Тип рипа: image+.cue
Битрейт аудио: lossless
Продолжительность: 50:33
Источник (релизер): собственный рип
Наличие сканов в содержимом раздачи: да
Треклист:
1 Stufen
2 Spielraum
3 Radspuren
4 Die Flüsse Hinauf
5 Täuschung Der Luft
6 Freigeweht

 
Отчёт EAC

Exact Audio Copy V1.0 beta 3 from 29. August 2011
Отчёт EAC об извлечении, выполненном 20. января 2013, 23:12
Rainer Bruninghaus / Freigeweht
Дисковод: HL-DT-STDVDRAM GH22NS70 Adapter: 1 ID: 0
Режим чтения : Достоверность
Использование точного потока : Да
Отключение кэша аудио : Да
Использование указателей C2 : Нет
Коррекция смещения при чтении : 667
Способность читать области Lead-in и Lead-out : Нет
Заполнение пропущенных сэмплов тишиной : Да
Удаление блоков с тишиной в начале и конце : Нет
При вычислениях CRC использовались нулевые сэмплы : Да
Интерфейс : Встроенный Win32-интерфейс для Win NT/2000
Выходной формат : Пользовательский кодировщик
Выбранный битрейт : 128 kBit/s
Качество : Высокий
Добавление ID3-тега : Нет
Утилита сжатия : C:\Program Files\Exact Audio Copy\FLAC\FLAC.EXE
Дополнительные параметры : -V -8 -T "Date=%year%" -T "Genre=%genre%" %source%
TOC извлечённого CD
Трек | Старт | Длительность | Начальный сектор | Конечный сектор
---------------------------------------------------------------------
1 | 0:00.32 | 8:24.00 | 32 | 37831
2 | 8:24.32 | 6:03.00 | 37832 | 65056
3 | 14:27.32 | 10:52.00 | 65057 | 113956
4 | 25:19.32 | 8:37.00 | 113957 | 152731
5 | 33:56.32 | 4:20.00 | 152732 | 172231
6 | 38:16.32 | 12:17.00 | 172232 | 227506
Характеристики диапазона извлечения и сообщения об ошибках
Выбранный диапазон
Имя файла D:\Up-Down\Rainer Bruninghaus - Freigeweht\Rainer Bruninghaus - Freigeweht.wav
Пиковый уровень 99.9 %
Скорость извлечения 1.7 X
Качество диапазона 99.9 %
CRC теста 17DCE621
CRC копии 17DCE621
Копирование... OK
Ошибок не произошло
AccurateRip: сводка
Трек 1 точность не определена (достоверность 7) [51193FB0], AccurateRip вернул [B11F48B2] (AR v2)
Трек 2 точность не определена (достоверность 8) [A89276D7], AccurateRip вернул [9B447DF9] (AR v2)
Трек 3 точность не определена (достоверность 8) [DA451969], AccurateRip вернул [B0FECBC9] (AR v2)
Трек 4 точность не определена (достоверность 7) [DF65AE1D], AccurateRip вернул [7D4E404F] (AR v2)
Трек 5 точность не определена (достоверность 7) [820EF21B], AccurateRip вернул [76AD8838] (AR v2)
Трек 6 точность не определена (достоверность 7) [CB1C08AE], AccurateRip вернул [29980266] (AR v2)
Ни один трек не прошёл проверки на точность
В вашей базе может быть иной вариант штамповки диска
Конец отчёта
==== Контрольная сумма отчёта 08968FF1373993205D73066E3DDE89B27176BE7113FF6B86EAB86659D0FB0A89 ====

Приватный:
Нет (DHT включён)
Размер:
287.91 Мб (301,897,736 байт) » файлов: 8
Участники:
0 раздают, 0 качают (0 участников всего)
Внешние участники:
1 раздают, 0 качают (1 участников всего) [ Обновить ]
Никого нет на раздаче - пишите личное сообщение M0p94ok
No seeders - write personal message to M0p94ok
17:22
113
Нет комментариев. Ваш будет первым!