Вы используете незарегистрированную версию компонента "Вкладки"!

Поиск

(Hard Bop) Frank Morgan w. Mulgrew Miller, Ron Carter, Al Foster - Yardbird Suite - 1988, APE (image+.cue), lossless

(Hard Bop) Frank Morgan w. Mulgrew Miller, Ron Carter, Al Foster - Yardbird Suite - 1988, APE (image+.cue), lossless
Треклист:
Frank Morgan w. Mulgrew Miller, Ron Carter, Al Foster - Yardbird Suite
Жанр: Hard Bop
Год выпуска диска: 1988
Аудио кодек: APE
Тип рипа: image+.cue
Битрейт аудио: lossless
Продолжительность: 49:03
Трэклист:
1 Yardbird Suite
2 A Night in Tunisia
3 Billie's Bounce
4 Star Eyes
5 Scrapple from the Apple
6 Skylark
7 Cheryl
Музыканты:
Frank Morgan, alto sax
Mulgrew Miller, piano
Ron Carter, bass
Al Foster, drums
 
Отчёт EAC
Exact Audio Copy V0.99 prebeta 4 from 23. January 2008
Отчёт EAC об извлечении, выполненном 14. апреля 2009, 22:15
Frank Morgan / Yardbird Suite
Дисковод: Optiarc DVD RW AD-7200A Adapter: 3 ID: 1
Режим чтения : Достоверность
Использование точного потока : Да
Отключение кэша аудио : Да
Использование указателей C2 : Нет
Коррекция смещения при чтении : 48
Способность читать области Lead-in и Lead-out : Нет
Заполнение пропущенных сэмплов тишиной : Да
Удаление блоков с тишиной в начале и конце : Нет
При вычислениях CRC использовались нулевые сэмплы : Да
Интерфейс : Установленный внешний ASPI-интерфейс
Выходной формат : Внутренние WAV-операции
Формат сэмплов : 44.100 Гц; 16 бит; стерео
TOC извлечённого CD
Трек | Старт | Длительность | Начальный сектор | Конечный сектор
---------------------------------------------------------------------
1 | 0:00.00 | 7:57.15 | 0 | 35789
2 | 7:57.15 | 6:24.71 | 35790 | 64660
3 | 14:22.11 | 7:23.24 | 64661 | 97909
4 | 21:45.35 | 7:15.27 | 97910 | 130561
5 | 29:00.62 | 6:04.01 | 130562 | 157862
6 | 35:04.63 | 6:43.39 | 157863 | 188126
7 | 41:48.27 | 7:49.17 | 188127 | 223318
Характеристики диапазона извлечения и сообщения об ошибках
Выбранный диапазон
Имя файла E:\Up-Down\Frank Morgan - Yardbird Suite\Frank Morgan - Yardbird Suite.wav
Пиковый уровень 93.5 %
Качество диапазона 100.0 %
CRC копии 32683C0F
Копирование... OK
Ошибок не произошло
Конец отчёта
 
Tau Analyzer
Any questions - support@pro-jazz.com. Есть вопросы - support@pro-jazz.com
17:21
304
Нет комментариев. Ваш будет первым!