Поиск

1981 First Avenue - First Avenue (2019) {ECM 1194} [24-96]

1981 First Avenue - First Avenue (2019) {ECM 1194} [24-96]
Стили:
Дата записи диска:
ноябрь 1980
Место записи:
Tonstudio Bauer, Ludwigsburg, Germany
Дата издания диска:
1981
Дата переиздания диска:
2019
Издатель (лейбл):
Номер по каталогу:
1194
Носитель:
WEB
Формат:
PCM
Тип рипа:
tracks
Контейнер:
ISO (*.iso)
Количество каналов:
2.0
Разрядность/ЧД:
24/96
Время звучания:
00:43:58
Наличие сканов:
только обложка
Наличие водяных знаков:
нет
Страна-производитель диска (релиза):
Germany
Релизёр (источник):
M0p94ok
Треклист:

1    Band One    9:10
2    Band Two    4:35
3    Band Three    2:20
4    Band Four    3:39
5    Band Five    1:52
6    Band Six    12:16
7    Band Seven    5:16
8    Band Eight    4:50

Лог проверки качества
foobar2000 1.4.3 / Dynamic Range Meter 1.1.1
log date: 2020-02-07 10:01:40

--------------------------------------------------------------------------------
Analyzed: First Avenue / First Avenue
--------------------------------------------------------------------------------

DR         Peak         RMS     Duration Track
--------------------------------------------------------------------------------
DR11      -3.03 dB   -21.13 dB      9:11 01-Band One
DR13      -1.94 dB   -20.57 dB      4:36 02-Band Two
DR13      -2.44 dB   -21.65 dB      2:20 03-Band Three
DR15      -2.64 dB   -23.50 dB      3:39 04-Band Four
DR11      -2.38 dB   -17.18 dB      1:53 05-Band Five
DR13      -2.16 dB   -21.47 dB     12:17 06-Band Six
DR15      -0.70 dB   -20.95 dB      5:16 07-Band Seven
DR11      -2.45 dB   -20.31 dB      4:50 08-Band Eight
--------------------------------------------------------------------------------

Number of tracks:  8
Official DR value: DR13

Samplerate:        96000 Hz
Channels:          2
Bits per sample:   24
Bitrate:           2775 kbps
Codec:             FLAC
================================================================================

Приватный:
Нет (DHT включён)
Размер:
864.44 Мб (906,430,731 байт) » файлов: 10
Участники:
2 раздают, 0 качают (2 участников всего)
Внешние участники:
--- [ Обновить ]
No seeders - write a personal message to user M0p94ok. Нет сидеров - пишите личное сообщение пользователю M0p94ok.
11:18
138
Нет комментариев. Ваш будет первым!