Вы используете незарегистрированную версию компонента "Вкладки"!

Поиск

2019 Tini Thomsen - Shift {Jazzhaus} [24-44,1]

2019 Tini Thomsen - Shift {Jazzhaus} [24-44,1]
Доп. инфо:

Формат записи/Источник записи: [TR24][OF]
Наличие водяных знаков: Нет
Год издания: 2019
Жанр: Contemporary Jazz, Funk
Издатель (лейбл): Jazzhaus Records
Продолжительность: 00:48:49
Наличие сканов в содержимом раздачи: Только обложка альбома
Контейнер: FLAC (*.flac)
Тип рипа: tracks
Разрядность: 24/44.1
Формат: PCM
Количество каналов: 2.0
Источник (релизер): highresaudio.com

Лог проверки качества
foobar2000 1.4.8 / Dynamic Range Meter 1.1.1
log date: 2020-01-01 13:57:15

--------------------------------------------------------------------------------
Analyzed: Tini Thomsen / Shift
--------------------------------------------------------------------------------

DR         Peak         RMS     Duration Track
--------------------------------------------------------------------------------
DR9       -0.10 dB   -10.59 dB      8:07 01-King of Diamonds
DR9       -0.10 dB   -10.76 dB      6:33 02-Shift
DR10      -0.10 dB   -11.57 dB      5:13 03-The Gospel Tune
DR7       -0.10 dB    -9.50 dB      4:04 04-Little Lily's Shoe
DR8       -0.10 dB    -9.44 dB      5:43 05-Happy Segment Day
DR6       -0.10 dB    -7.85 dB      1:40 06-Planet Fuck
DR7       -0.10 dB    -9.32 dB      5:46 07-Big Boys
DR9       -0.10 dB   -10.59 dB      5:04 08-Bitter Sweet Harmony
DR13      -0.10 dB   -14.80 dB      2:09 09-Petal #6
DR9       -0.10 dB   -10.48 dB      4:33 10-Walk
--------------------------------------------------------------------------------

Number of tracks:  10
Official DR value: DR9
Samplerate:        44100 Hz
Channels:          2
Bits per sample:   24
Bitrate:           1535 kbps
Codec:             FLAC
================================================================================
Any questions - support@pro-jazz.com. Есть вопросы - support@pro-jazz.com
13:16
283
Нет комментариев. Ваш будет первым!