Вы используете незарегистрированную версию компонента "Вкладки"!

Поиск

1959 Paul Desmond Quartet - East Of The Sun (First Place Again) (2019) {RevOla} [24-44,1]

1959 Paul Desmond Quartet - East Of The Sun (First Place Again) (2019) {RevOla} [24-44,1]
Стили:
Издатель (лейбл):
Доп. инфо:

Формат записи/Источник записи: [TR24][OF]
Издание: Remastered
Год издания/переиздания диска: 1959/2019
Издатель (лейбл): RevOla
Продолжительность: 00:42:27
Наличие сканов в содержимом раздачи: Нет

Контейнер: FLAC (*.flac)
Тип рипа: tracks
Разрядность: 24/44,1
Количество каналов: 2.0

Источник (релизер): Qobuz

Лог проверки качества
foobar2000 1.3.16 / Dynamic Range Meter 1.1.1
log date: 2019-03-26 18:41:35

--------------------------------------------------------------------------------
Analyzed: Paul Desmond Quartet / East Of The Sun
--------------------------------------------------------------------------------

DR         Peak         RMS     Duration Track
--------------------------------------------------------------------------------
DR15     -13.77 dB   -32.29 dB      8:43 01-I Get a Kick Out Of You
DR17     -13.39 dB   -35.13 dB      5:37 02-For All we Know
DR16     -13.85 dB   -34.84 dB      7:33 03-2 Degrees East, 3 Degrees West
DR12     -16.64 dB   -33.88 dB      2:07 04-Greensleeves
DR14     -13.73 dB   -33.63 dB      6:30 05-You Go to my Head
DR15     -13.56 dB   -32.22 dB      5:48 06-East of the Sun
DR14     -14.43 dB   -34.51 dB      6:13 07-Time After Time
--------------------------------------------------------------------------------

Number of tracks:  7
Official DR value: DR15

Samplerate:        44100 Hz
Channels:          2
Bits per sample:   24
Bitrate:           1168 kbps
Codec:             FLAC
================================================================================
Any questions - support@pro-jazz.com. Есть вопросы - support@pro-jazz.com
21:41
324
Нет комментариев. Ваш будет первым!