Вы используете незарегистрированную версию компонента "Вкладки"!

Поиск

1961 Cal Tjader - In A Latin Bag (2019) {RevOla} [24-44,1]

1961 Cal Tjader - In A Latin Bag (2019) {RevOla} [24-44,1]
Стили:
Издатель (лейбл):
Доп. инфо:

Формат записи/Источник записи: [TR24][OF]
Издание: Remastered
Год издания/переиздания диска: 1961/2019
Издатель (лейбл): RevOla
Продолжительность: 00:33:26
Наличие сканов в содержимом раздачи: Нет

Контейнер: FLAC (*.flac)
Тип рипа: tracks
Разрядность: 24/44,1
Количество каналов: 2.0

Источник (релизер): Qobuz

Лог проверки качества
foobar2000 1.3.16 / Dynamic Range Meter 1.1.1
log date: 2019-03-25 01:02:22

--------------------------------------------------------------------------------
Analyzed: Cal Tjader / In A Latin Bag
--------------------------------------------------------------------------------

DR         Peak         RMS     Duration Track
--------------------------------------------------------------------------------
DR11      -3.97 dB   -18.18 dB      2:27 01-Ben-Hur
DR13      -3.25 dB   -17.88 dB      2:37 02-Davito
DR12      -2.51 dB   -18.07 dB      5:31 03-Green Dolphin Street
DR12      -3.60 dB   -18.33 dB      3:05 04-Pauneto's Point
DR12      -3.37 dB   -18.43 dB      2:59 05-Speak Low
DR12      -3.61 dB   -18.25 dB      4:09 06-Triste
DR13      -2.13 dB   -20.60 dB      2:49 07-Misty
DR13      -3.82 dB   -18.88 dB      2:45 08-Mambo In Miami
DR11      -3.21 dB   -17.58 dB      2:31 09-Ecstasy
DR13      -3.43 dB   -18.83 dB      4:38 10-Half And Half
--------------------------------------------------------------------------------

Number of tracks:  10
Official DR value: DR12

Samplerate:        44100 Hz
Channels:          2
Bits per sample:   24
Bitrate:           1382 kbps
Codec:             FLAC
================================================================================
Any questions - support@pro-jazz.com. Есть вопросы - support@pro-jazz.com
21:32
237
Нет комментариев. Ваш будет первым!