Поиск

1978 Joe Pass & Paulinho da Costa - Tudo Bem! (1991) {Pablo OJC OJCCD 6852}

1978 Joe Pass & Paulinho da Costa - Tudo Bem! (1991) {Pablo OJC OJCCD 6852}
Стили:
Издатель (лейбл):
Состав:
  • Octavio Bailly, Jr. Bass, Composer
  • Oscar Castro-Neves Composer, Guitar
  • Paulinho Da Costa Percussion
  • Norman Granz Producer
  • Don Grusin Composer, Keyboards
  • Joe Pass Guitar
  • Claudio Slon Drums
  • Val Valentin Engineer

Страна-производитель диска (релиза): USA
Дата записи диска: 08 мая 1978
Дата издания диска: 1991
Номер по каталогу: OJCCD 6852
Носитель: CD
Битрейт аудио: lossless
Аудиокодек: APE (*.ape)
Тип рипа: image+.cue
Время звучания: 51:41
Наличие сканов: нет
Релизёр (источник): spiderc@t

Треклист:
01. Corcovado 6:20
02. Tears (Razao de viver) 3:32
03. Wave 10:08
04. Voce (You) 3:10
05. If You Went Away 3:04
06. Que que ha? 6:50
07. The Gentle Rain (Chuva delicada) 4:11
08. Barquinho 6:11
09. Luciana 4:55
10. I Live to Love 3:20

 
Covers

 
Лог создания рипа

Exact Audio Copy V0.99 prebeta 3 from 28. July 2007
EAC extraction logfile from 16. December 2007, 14:55
Joe Pass & Paulinho da Costa / Tudo Bem
Used drive : PLEXTOR CD-R PREMIUM Adapter: 1 ID: 0
Read mode : Secure
Utilize accurate stream : Yes
Defeat audio cache : Yes
Make use of C2 pointers : No
Read offset correction : 30
Overread into Lead-In and Lead-Out : Yes
Fill up missing offset samples with silence : Yes
Delete leading and trailing silent blocks : No
Null samples used in CRC calculations : No
Used interface : Installed external ASPI interface
Used output format : Internal WAV Routines
Sample format : 44.100 Hz; 16 Bit; Stereo
TOC of the extracted CD
Track | Start | Length | Start sector | End sector
---------------------------------------------------------
1 | 0:00.00 | 6:24.67 | 0 | 28866
2 | 6:24.67 | 3:35.15 | 28867 | 45006
3 | 10:00.07 | 10:13.33 | 45007 | 91014
4 | 20:13.40 | 3:14.12 | 91015 | 105576
5 | 23:27.52 | 3:08.18 | 105577 | 119694
6 | 26:35.70 | 7:00.65 | 119695 | 151259
7 | 33:36.60 | 4:16.52 | 151260 | 170511
8 | 37:53.37 | 6:12.28 | 170512 | 198439
9 | 44:05.65 | 4:59.17 | 198440 | 220881
10 | 49:05.07 | 3:21.08 | 220882 | 235964
Range status and errors
Selected range
Filename D:\My Documents\My Music\Images\my archive\CD\Joe Pass & Paulinho da Costa - Tudo Bem\Joe Pass & Paulinho da Costa - Tudo Bem.wav
Peak level 100.0 %
Range quality 100.0 %
Copy CRC 783D7E58
Copy OK
No errors occurred
AccurateRip summary
Track 1 not present in database
Track 2 cannot be verified as accurate (confidence 2) [9349E103], AccurateRip returned [A2FEB413]
Track 3 cannot be verified as accurate (confidence 2) [CD5FDB6A], AccurateRip returned [B42C2A86]
Track 4 cannot be verified as accurate (confidence 2) [85E83F98], AccurateRip returned [96607FA5]
Track 5 cannot be verified as accurate (confidence 2) [72E8AFDE], AccurateRip returned [06C6CFC4]
Track 6 cannot be verified as accurate (confidence 2) [3130BC14], AccurateRip returned [3B0F9AD7]
Track 7 cannot be verified as accurate (confidence 2) [2F77FA76], AccurateRip returned [57160622]
Track 8 cannot be verified as accurate (confidence 2) [4F97D246], AccurateRip returned [EBB35F3F]
Track 9 cannot be verified as accurate (confidence 2) [8F50F483], AccurateRip returned [B6039199]
Track 10 cannot be verified as accurate (confidence 2) [907DF00E], AccurateRip returned [90F5E58E]
9 track(s) could not be verified as accurate
1 track(s) not present in the AccurateRip database
No tracks could be verified as accurate
You may have a different pressing from the one(s) in the database
End of status report

 

Приватный:
Нет (DHT включён)
Размер:
251.57 Мб (263,786,984 байт) » файлов: 3
Участники:
0 раздают, 0 качают (0 участников всего)
Внешние участники:
--- [ Обновить ]
22:45
80
RSS
Нет комментариев. Ваш будет первым!