Поиск

1991 Joe Pass - Appassionato {Pablo PACD-2310-946-2}

1991 Joe Pass - Appassionato {Pablo PACD-2310-946-2}
Издатель (лейбл):
Состав:
  • Colin Bailey Drums
  • Angel Balestier Engineer, Mixing
  • Jim Hughart Bass
  • Eric Miller Producer
  • Joe Pass Guitar, Guitar (Acoustic), Guitar (Electric)
  • John Pisano Guitar, Guitar (Acoustic)
  • Scott Yanow Liner Notes

Страна-производитель диска (релиза): USA
Дата записи диска: 9-11 августа 1990
Место записи: Group IV Recording, Hollywood, CA
Дата издания диска: 1991
Номер по каталогу: PACD-2310-946-2
Носитель: CD
Битрейт аудио: lossless
Аудиокодек: APE (*.ape)
Тип рипа: image+.cue
Время звучания: 56:18
Наличие сканов: нет
Релизёр (источник): spiderc@t

Треклист:
01. Relaxin' At Camarillo 4:53
02. Grooveyard 5:37
03. Body And Soul 4:52
04. Nica's Dream 4:45
05. Tenderly 5:06
06. When It's Sleepy Time Down South 2:00
07. Red Door 4:50
08. Gee, Baby Ain't God To You 3:54
09. Lil' Darlin' 5:35
10. That's Earl, Brother 4:09
11. Stuffy 4:29
12. You're Driving Me Crazy 6:08

 
Лог создания рипа

Exact Audio Copy V0.99 prebeta 3 from 28. July 2007
EAC extraction logfile from 16. December 2007, 15:55
Joe Pass / Appassionato
Used drive : PLEXTOR CD-R PREMIUM Adapter: 1 ID: 0
Read mode : Secure
Utilize accurate stream : Yes
Defeat audio cache : Yes
Make use of C2 pointers : No
Read offset correction : 30
Overread into Lead-In and Lead-Out : Yes
Fill up missing offset samples with silence : Yes
Delete leading and trailing silent blocks : No
Null samples used in CRC calculations : No
Used interface : Installed external ASPI interface
Used output format : Internal WAV Routines
Sample format : 44.100 Hz; 16 Bit; Stereo
TOC of the extracted CD
Track | Start | Length | Start sector | End sector
---------------------------------------------------------
1 | 0:00.00 | 4:54.67 | 0 | 22116
2 | 4:54.67 | 5:40.20 | 22117 | 47636
3 | 10:35.12 | 4:57.23 | 47637 | 69934
4 | 15:32.35 | 4:49.37 | 69935 | 91646
5 | 20:21.72 | 5:06.53 | 91647 | 114649
6 | 25:28.50 | 1:59.40 | 114650 | 123614
7 | 27:28.15 | 4:50.72 | 123615 | 145436
8 | 32:19.12 | 3:55.38 | 145437 | 163099
9 | 36:14.50 | 5:37.55 | 163100 | 188429
10 | 41:52.30 | 4:12.32 | 188430 | 207361
11 | 46:04.62 | 4:32.10 | 207362 | 227771
12 | 50:36.72 | 6:06.64 | 227772 | 255285
Range status and errors
Selected range
Filename D:\My Documents\My Music\Images\my archive\CD\Joe Pass - Appassionato\Joe Pass - Appassionato.wav
Peak level 100.0 %
Range quality 100.0 %
Copy CRC 7F10875C
Copy OK
No errors occurred
AccurateRip summary
Track 1 not present in database
Track 2 not present in database
Track 3 not present in database
Track 4 not present in database
Track 5 not present in database
Track 6 not present in database
Track 7 not present in database
Track 8 not present in database
Track 9 not present in database
Track 10 not present in database
Track 11 not present in database
Track 12 not present in database
None of the tracks are present in the AccurateRip database
End of status report

 

Скачивание доступно после регистрации!!
Приватный:
Нет (DHT включён)
Размер:
273.05 Мб (286,308,881 байт) » файлов: 3
Участники:
0 раздают, 0 качают (0 участников всего)
Внешние участники:
--- [ Обновить ]
20:02
56
RSS
Нет комментариев. Ваш будет первым!