Поиск

1976 Gato Barbieri - Caliente! (2021) {A&M} [24-96]

1976 Gato Barbieri - Caliente! (2021) {A&M} [24-96]
Место записи:
A&R Studios, New York City, NY, USA
Издатель (лейбл):
Битрейт аудио:
lossless
Доп. инфо:

Формат записи/Источник записи: [TR24][OF]
Издание: Remastered
Год издания/переиздания диска: 1976/2021
Продолжительность: 00:39:21
Наличие сканов в содержимом раздачи: Нет

Контейнер: FLAC (*.flac)
Тип рипа: tracks
Разрядность: 24/96
Количество каналов: 2.0

Источник (релизер): HIGHRESAUDIO

Лог проверки качества
foobar2000 1.4.3 / Dynamic Range Meter 1.1.1
log date: 2021-03-01 04:16:33

--------------------------------------------------------------------------------
Analyzed: Gato Barbieri / Caliente!
--------------------------------------------------------------------------------

DR         Peak         RMS     Duration Track
--------------------------------------------------------------------------------
DR11      -0.20 dB   -14.87 dB      5:21 01-Fireflies
DR10      -0.27 dB   -13.37 dB      5:07 02-Fiesta
DR11      -0.68 dB   -15.53 dB      4:22 03-Europa (Earth's Cry, Heaven's Smile)
DR11      -0.20 dB   -13.44 dB      4:55 04-Don't Cry Rochelle
DR14      -4.82 dB   -24.97 dB      0:37 05-Adios - Part I
DR10      -0.20 dB   -13.02 dB      5:58 06-I Want You
DR11      -0.35 dB   -15.38 dB      5:35 07-Behind The Rain
DR11      -0.20 dB   -15.22 dB      6:14 08-Los Desperados
DR11      -0.34 dB   -14.44 dB      0:59 09-Adios - Part II
--------------------------------------------------------------------------------

Number of tracks:  9
Official DR value: DR11

Samplerate:        96000 Hz
Channels:          2
Bits per sample:   24
Bitrate:           3048 kbps
Codec:             FLAC
================================================================================
No seeders - write personal message to M0p94ok. Any questions - support@pro-jazz.com.
Нет сидеров - пишите в личку M0p94ok. Есть вопросы - support@pro-jazz.com
16:25
100
Нет комментариев. Ваш будет первым!