Вы используете незарегистрированную версию компонента "Вкладки"!

Поиск

1974 Grady Tate - Movin' Day (2019) {Janus} [24-44,1]

1974 Grady Tate - Movin' Day (2019) {Janus} [24-44,1]
Стили:
Доп. инфо:

Формат записи/Источник записи: [TR24][OF]
Наличие водяных знаков: Нет
Год издания/переиздания диска: 1974/2019
Издатель (лейбл): Janus Records
Продолжительность: 39:17
Наличие сканов в содержимом раздачи: Только обложка альбома

Контейнер: FLAC (*.flac)
Тип рипа: tracks
Разрядность: 24/44,1
Формат: PCM
Количество каналов: 2.0

Источник: hdtracks.com

Лог проверки качества
foobar2000 1.3.9 / Dynamic Range Meter 1.1.1
log date: 2019-12-13 01:31:51

--------------------------------------------------------------------------------
Analyzed: Grady Tate / Movin' Day
--------------------------------------------------------------------------------

DR         Peak         RMS     Duration Track
--------------------------------------------------------------------------------
DR8       -1.18 dB   -11.17 dB      4:16 01-Moondance
DR9       -1.21 dB   -12.08 dB      4:18 02-Love Has No Pride
DR8       -1.25 dB   -10.99 dB      3:04 03-I Wouldn't Have You Any Other Way
DR8       -1.18 dB   -11.68 dB      6:07 04-Movin' Day
DR9       -1.25 dB   -11.59 dB      7:24 05-Sitting In Limbo
DR8       -1.18 dB   -11.39 dB      7:31 06-You're A Lady
DR8       -1.18 dB   -10.80 dB      6:37 07-The Hardest Thing I've Ever Had To Do
--------------------------------------------------------------------------------

Number of tracks:  7
Official DR value: DR8

Samplerate:        44100 Hz
Channels:          2
Bits per sample:   24
Bitrate:           1597 kbps
Codec:             FLAC
================================================================================
Any questions - support@pro-jazz.com. Есть вопросы - support@pro-jazz.com
11:55
223
Нет комментариев. Ваш будет первым!