Вы используете незарегистрированную версию компонента "Вкладки"!

Поиск

1960 Les Cinq Modernes – Continental Jazz (2019) {Somerset} [24-96]

1960 Les Cinq Modernes – Continental Jazz (2019) {Somerset} [24-96]
Стили:
Доп. инфо:

Формат записи/Источник записи: [TR24][OF]
Наличие водяных знаков: Нет
Год издания/переиздания диска: 1960/2019
Издатель (лейбл): Somerset
Продолжительность: 00:36:22
Наличие сканов в содержимом раздачи: Только обложка
Источник: qobuz
Контейнер: FLAC (*.flac)
Тип рипа: tracks

Лог проверки качества
foobar2000 1.3.7 / Dynamic Range Meter 1.1.1
log date: 2019-12-10 07:24:56

––––––––––––––––––––––––––––––––––––––––
Analyzed: Les Cinq Modernes / Continental Jazz (Remastered from the Original Somerset Tapes)
––––––––––––––––––––––––––––––––––––––––

DR Peak RMS Duration Track
––––––––––––––––––––––––––––––––––––––––
DR11 -0.50 dB -19.59 dB 3:44 01-Volare (Remastered)
DR13 -0.50 dB -20.62 dB 3:42 02-Petite fleur (Remastered)
DR12 -0.50 dB -15.89 dB 3:57 03-Blanc sur blanc (Remastered)
DR11 -0.50 dB -17.47 dB 3:08 04-Sorrento (Remastered)
DR12 -0.50 dB -15.63 dB 3:57 05-St. Germain (Remastered)
DR13 -0.50 dB -17.29 dB 4:21 06-Alouette (Remastered)
DR13 -0.50 dB -18.30 dB 4:14 07-Moritat (Mack the Knife) (Remastered)
DR12 -0.50 dB -17.25 dB 4:38 08-Petite Fantasy (Slightly Out) (Remastered)
DR10 -0.50 dB -18.50 dB 2:10 09-La Violetera (Remastered)
DR12 -0.50 dB -16.74 dB 2:38 10-Arrivederci Roma (Remastered)
––––––––––––––––––––––––––––––––––––––––

Number of tracks: 10
Official DR value: DR12

Samplerate: 96000 Hz
Channels: 2
Bits per sample: 24
Bitrate: 2721 kbps
Codec: FLAC
================================================================================
Any questions - support@pro-jazz.com. Есть вопросы - support@pro-jazz.com
14:47
309
Нет комментариев. Ваш будет первым!