Вы используете незарегистрированную версию компонента "Вкладки"!

Поиск

1968 Benny Bailey Sextett - Soul Eyes: Jazz Live At The Domicile, Munich (2017) {MPS} [24-88,2]

1968 Benny Bailey Sextett - Soul Eyes: Jazz Live At The Domicile, Munich (2017) {MPS} [24-88,2]
Стили:
Доп. инфо:

Формат записи/Источник записи: [TR24][OF]
Наличие водяных знаков: Нет
Издание: Remastered
Год издания/переиздания диска: 1968/2017
Издатель (лейбл): MPS Records
Продолжительность: 45:34
Наличие сканов в содержимом раздачи: Только обложка альбома

Контейнер: FLAC (*.flac)
Тип рипа: tracks
Разрядность: 24/88,2
Формат: PCM
Количество каналов: 2.0

Источник: hdtracks.com

Лог проверки качества
foobar2000 1.3.9 / Dynamic Range Meter 1.1.1
log date: 2019-12-14 02:29:42

--------------------------------------------------------------------------------
Analyzed: Benny Bailey Sextett / Soul Eyes (Jazz Live At Domicile Munich)
--------------------------------------------------------------------------------

DR         Peak         RMS     Duration Track
--------------------------------------------------------------------------------
DR13      -3.06 dB   -19.75 dB      8:03 01-Prompt
DR12      -1.07 dB   -17.23 dB     10:23 02-Soul Eyes
DR12      -1.13 dB   -17.69 dB     11:59 03-Ruts, Grooves, Graves And Dimensions
DR14      -0.88 dB   -18.28 dB     15:10 04-Mid-Evil Dance
--------------------------------------------------------------------------------

Number of tracks:  4
Official DR value: DR13

Samplerate:        88200 Hz
Channels:          2
Bits per sample:   24
Bitrate:           2705 kbps
Codec:             FLAC
================================================================================
Any questions - support@pro-jazz.com. Есть вопросы - support@pro-jazz.com
16:42
264
Нет комментариев. Ваш будет первым!