Вы используете незарегистрированную версию компонента "Вкладки"!

Поиск

1969 Grady Tate with The Gary McFarland Orchestra - Slaves {Skye} [24-44,1]

1969 Grady Tate with The Gary McFarland Orchestra - Slaves {Skye} [24-44,1]
Доп. инфо:

Формат записи/Источник записи: [TR24][OF]
Наличие водяных знаков: Нет
Год издания/переиздания диска: 1969/ n/a
Издатель (лейбл): Skye Records
Продолжительность: 28:17
Наличие сканов в содержимом раздачи: Только обложка альбома

Контейнер: FLAC (*.flac)
Тип рипа: tracks
Разрядность: 24/44,1
Формат: PCM
Количество каналов: 2.0

Источник: hdtracks.com

Лог проверки качества
foobar2000 1.3.9 / Dynamic Range Meter 1.1.1
log date: 2019-12-13 00:58:52

--------------------------------------------------------------------------------
Analyzed: Grady Tate / Slaves
--------------------------------------------------------------------------------

DR         Peak         RMS     Duration Track
--------------------------------------------------------------------------------
DR6       -1.21 dB   -11.31 dB      3:11 01-Slaves (Instrumental)
DR6       -1.21 dB    -9.96 dB      3:51 02-Slaves
DR6       -1.21 dB   -10.44 dB      1:45 03-Meetin' House (Instrumental)
DR9       -1.21 dB   -12.28 dB      2:51 04-Black Lullabye
DR8       -1.21 dB   -12.24 dB      3:13 05-Another Mornin'
DR8       -1.21 dB   -11.44 dB      2:23 06-Pickin' Cotton
DR9       -1.21 dB   -13.37 dB      3:03 07-Nightwind (Esther's Theme) (Instrumental)
DR8       -1.21 dB   -12.24 dB      3:14 08-Another Mornin'
DR8       -1.21 dB   -11.40 dB      1:21 09-Pickin' Cotton (Instrumental)
DR10      -1.21 dB   -14.98 dB      3:27 10-Nightwind (Esther's Theme)
--------------------------------------------------------------------------------

Number of tracks:  10
Official DR value: DR8

Samplerate:        44100 Hz
Channels:          2
Bits per sample:   24
Bitrate:           1237 kbps
Codec:             FLAC
================================================================================
Any questions - support@pro-jazz.com. Есть вопросы - support@pro-jazz.com
23:22
300
Нет комментариев. Ваш будет первым!