Поиск

1974 Buddy Rich — The Roar Of '74 (1990) {Groove Merchant} [CD]

1974 Buddy Rich — The Roar Of '74 (1990) {Groove Merchant} [CD]
Стили:
Номер по каталогу:
CD2625072
Носитель:
CD
Тип рипа:
image+.cue
Аудиокодек:
FLAC (*.flac)
Битрейт аудио:
lossless
Время звучания:
00:40:50
Наличие сканов:
да
Страна-производитель диска (релиза):
Germany
Релизёр (источник):
janwal46
Лог создания рипа
Exact Audio Copy V0.99 prebeta 4 from 23. January 2008
EAC extraction logfile from 18. August 2009, 14:05
Buddy Rich / The Roar Of '74
Used drive  : Optiarc DVD RW AD-7173A   Adapter: 1  ID: 0
Read mode               : Secure
Utilize accurate stream : Yes
Defeat audio cache      : Yes
Make use of C2 pointers : No
Read offset correction                      : 48
Overread into Lead-In and Lead-Out          : No
Fill up missing offset samples with silence : Yes
Delete leading and trailing silent blocks   : No
Null samples used in CRC calculations       : No
Used interface                              : Native Win32 interface for Win NT & 2000
Used output format : Internal WAV Routines
Sample format      : 44.100 Hz; 16 Bit; Stereo
TOC of the extracted CD
     Track |   Start  |  Length  | Start sector | End sector
    ---------------------------------------------------------
        1  |  0:00.33 |  4:51.00 |        33    |    21857
        2  |  4:51.33 |  6:17.50 |     21858    |    50182
        3  | 11:09.08 |  5:44.00 |     50183    |    75982
        4  | 16:53.08 |  4:31.25 |     75983    |    96332
        5  | 21:24.33 |  3:48.25 |     96333    |   113457
        6  | 25:12.58 |  3:34.50 |    113458    |   129557
        7  | 28:47.33 |  7:19.62 |    129558    |   162544
        8  | 36:07.20 |  4:42.55 |    162545    |   183749
Range status and errors
Selected range
     Filename G:\AVAXHOME\Buddy Rich - The Roar Of '74\Buddy Rich - The Roar Of '74.wav
     Peak level 94.5 %
     Range quality 99.9 %
     Copy CRC A885C392
     Copy OK
No errors occurred
AccurateRip summary
Track  1  accurately ripped (confidence 1)  [E21378DF]
Track  2  accurately ripped (confidence 1)  [C882C675]
Track  3  accurately ripped (confidence 1)  [A16CA114]
Track  4  accurately ripped (confidence 1)  [00BC35A3]
Track  5  accurately ripped (confidence 1)  [0AD8DC8B]
Track  6  accurately ripped (confidence 1)  [24BD426A]
Track  7  accurately ripped (confidence 1)  [19AB5268]
Track  8  accurately ripped (confidence 1)  [268B184A]
All tracks accurately ripped
End of status report
No seeders - write personal message to M0p94ok. Any questions - support@pro-jazz.com.
Нет сидеров - пишите в личку M0p94ok. Есть вопросы - support@pro-jazz.com
16:03
267
14:12