Поиск

1973 (1992) Donald Byrd - Black Byrd

1973 (1992) Donald Byrd - Black Byrd
Страна-производитель диска (релиза):
USA
Дата записи диска:
3 апреля - 24 ноября 1972
Дата издания диска:
февраля 1973
Дата переиздания диска:
14 июля 1992
Номер по каталогу:
CDP 7844662
Носитель:
CD
Битрейт аудио:
lossless
Аудиокодек:
FLAC (*.flac)
Тип рипа:
image+.cue
Время звучания:
43:17
Наличие сканов:
  • нет
Релизёр (источник):
hihway61
Лог создания рипа
Отчёт EAC об извлечении, выполненном 13. мая 2007, 22:11 для диска:
Donald Byrd / Black Byrd
Дисковод: Optiarc DVD RW AD-7173A Adapter: 0 ID: 1
Режим чтения: Достоверный (C2: нет, Точный поток: да, Отключение кэша: да)
Коррекция смещения при чтении: 48
Способность читать области Lead-in и Lead-out : Нет
Выходной формат: Внутренние WAV-операции
44.100 Гц; 16 бит; стерео
Другие параметры:
Заполнение пропущенных сэмплов тишиной : Да
Удаление блоков с тишиной в начале и конце : Нет
Встроенный Win32-интерфейс для Win NT/2000
Характеристики диапазона извлечения и сообщения об ошибках
Выбранный диапазон
Имя файла C:\Byrd, Donald - Black Byrd\Donald Byrd - Black Byrd.wav
Пиковый уровень 89.1 %
Качество диапазона 100.0 %
CRC CB25267B
Копирование... OK
Ошибок не произошло
Конец отчёта
Содержание индексной карты (.CUE)
REM GENRE Blues
REM DATE 1973
REM DISCID 4E0A2507
REM COMMENT "ExactAudioCopy v0.95b4"
PERFORMER "Donald Byrd"
TITLE "Black Byrd"
FILE "Donald Byrd - Black Byrd.wav" WAVE
  TRACK 01 AUDIO
    TITLE "Flight Time"
    PERFORMER "Donald Byrd"
    INDEX 01 00:00:00
  TRACK 02 AUDIO
    TITLE "Black Byrd"
    PERFORMER "Donald Byrd"
    INDEX 00 08:29:35
    INDEX 01 08:31:57
  TRACK 03 AUDIO
    TITLE "Love's So Far Away"
    PERFORMER "Donald Byrd"
    INDEX 00 15:50:57
    INDEX 01 15:52:60
  TRACK 04 AUDIO
    TITLE "Mr. Thomas"
    PERFORMER "Donald Byrd"
    INDEX 00 21:54:45
    INDEX 01 21:55:67
  TRACK 05 AUDIO
    TITLE "Sky High"
    PERFORMER "Donald Byrd"
    INDEX 00 26:58:05
    INDEX 01 27:00:22
  TRACK 06 AUDIO
    TITLE "Slop Jar Blues"
    PERFORMER "Donald Byrd"
    INDEX 00 32:57:10
    INDEX 01 32:58:60
  TRACK 07 AUDIO
    TITLE "Where Are We Going?"
    PERFORMER "Donald Byrd"
    INDEX 00 38:37:55
    INDEX 01 38:39:70
Приватный:
Нет (DHT включён)
Размер:
287.23 Мб (301,177,577 байт) » файлов: 3
Участники:
0 раздают, 0 качают (0 участников всего)
Внешние участники:
2 раздают, 1 качают (3 участников всего) [ Обновить ]
09:52
87
RSS
Нет комментариев. Ваш будет первым!