Поиск

1997 Ronnie Laws - Tribute to Legendary Eddie Harris {Blue Note 55330}

1997 Ronnie Laws - Tribute to Legendary Eddie Harris {Blue Note 55330}
Страна-производитель диска (релиза):
USA
Дата записи диска:
28 октября - 15 ноября 1996
Дата издания диска:
8 апреля 1997
Издатель (лейбл):
Номер по каталогу:
55330
Носитель:
CD
Битрейт аудио:
lossless
Аудиокодек:
APE (*.ape)
Тип рипа:
image+.cue
Время звучания:
37:19:16
Наличие сканов:
  • да
Релизёр (источник):
vladgorod

Треклист:

01 - Listen Here 3:56
02 - Freedom Jazz Dance 4:29
03 - Boogie Woogie Bossa Nova 4:29 
04 - Cold Duck 3:58
05 - Sham Time 4:31
06 - I Don't Want No One But You 5:23
07 - Hip Hoppin' 4:03
08 - Compared to What 6:26

Состав:
  • Larry Antonino Bass
  • Gary Bias Sax (Baritone)
  • Oscar Brashear Trumpet
  • Vernell Brown, Jr. Guitar, Piano
  • William Bryant Drums
  • Andrea Coleman Vocals
  • Craig T. Cooper Guitar
  • Mike Elizondo Bass
  • Munyungo Jackson Percussion
  • Ronnie Laws Liner Notes, Producer, Sax (Soprano), Sax (Tenor), Saxophone
  • Patrice Rushen Piano
  • Michael Stewart Trumиpet
  • Jeffrey Suttles Drums

Записано в 

  • Capitol Recording Studios
  • Mad Hatter Recording Studio
Лог создания рипа
Exact Audio Copy V0.99 prebeta 3 from 28. July 2007
Отчёт EAC об извлечении, выполненном 2. марта 2008, 5:48
Ronnie Laws / Tribute to Legendary Eddie Harris
Дисковод: ASUS DVD-E616A2 Adapter: 0 ID: 0
Режим чтения : Достоверность
Использование точного потока : Да
Отключение кэша аудио : Да
Использование указателей C2 : Нет
Коррекция смещения при чтении : 6
Способность читать области Lead-in и Lead-out : Нет
Заполнение пропущенных сэмплов тишиной : Да
Удаление блоков с тишиной в начале и конце : Нет
: Да
Интерфейс : Установленный внешний ASPI-интерфейс
Выходной формат : Monkey's Audio (без потерь)
Выбранный битрейт : Extra High Lossless Compression
Качество : Высокий
Добавление ID3-тэга : Да
Утилита сжатия : D:\Program Files\Monkey's Audio\MAC.exe
Дополнительные параметры : %s %d -c4000
TOC извлечённого CD
Трек | Старт | Длительность | Начальный сектор | Конечный сектор
---------------------------------------------------------------------
1 | 0:00.00 | 3:56.42 | 0 | 17741
2 | 3:56.42 | 4:29.55 | 17742 | 37971
3 | 8:26.22 | 4:29.43 | 37972 | 58189
4 | 12:55.65 | 3:58.57 | 58190 | 76096
5 | 16:54.47 | 4:31.28 | 76097 | 96449
6 | 21:26.00 | 5:23.37 | 96450 | 120711
7 | 26:49.37 | 4:03.38 | 120712 | 138974
8 | 30:53.00 | 6:26.12 | 138975 | 167936
Характеристики диапазона извлечения и сообщения об ошибках
Выбранный диапазон
Имя файла E:\torrents\Ronnie Laws - Tribute to Legendary Eddie Harris.wav
Пиковый уровень 100.0 %
Качество диапазона 100.0 %
CRC копии D0DE3ACF
Копирование... OK
Ошибок не произошло
Приватный:
Нет (DHT включён)
Размер:
256.51 Мб (268,971,011 байт) » файлов: 8
Участники:
0 раздают, 0 качают (0 участников всего)
Внешние участники:
2 раздают, 1 качают (3 участников всего) [ Обновить ]
06:45
89
RSS
Нет комментариев. Ваш будет первым!