Поиск

1972 Slam Stewart - Slamboree (1997) {Black & Blue BB 888.2} [CD]

1972 Slam Stewart - Slamboree (1997) {Black & Blue BB 888.2} [CD]
Стили:
Дата записи диска:
10 июня 1972
Место записи:
The Bell Sound Studios, New York, NY
Дата издания диска:
1997
Издатель (лейбл):
Номер по каталогу:
BB 888.2
Носитель:
CD
Тип рипа:
image
Аудиокодек:
FLAC (*.flac)
Битрейт аудио:
lossless
Время звучания:
59:39
Страна-производитель диска (релиза):
France

Треклист:

01. Slamboree
02. On Green Dolphin Street
03. Foolin' Around
04. When Your Lover Has Gone
05. Back Home Again In Indiana
06. All The Things You Are
07. Yes Indeed
08. Willow Weep for Me
09. A Jam With Sam
10. All The Things You Are (Take 1)
11. Things Ain't What They Used to Be
12. On Green Dolphin Street (Alt Take)
13. Yes Indeed (Take 1)
14. All The Things You Are (Take 2)
15. Willow Weep for Me (Take 1)
16. Foolin' Around (Rehearsal)

Состав:
  • Al Casey    Guitar
  • Wild Bill Davis    Piano
  • Jo Jones    Drums
  • Joseph "Kaiser" Marshall    Drums
  • Gene Rodgers    Piano
  • Slam Stewart    Bass, Composer,Vocals
Доп. инфо:

Слэм Стюарт наиболее известен своим пением в октавный унисон с басом (будь то арко или пиццикато), особенно по записям со Слимом Гайярдом или с трио Арта Тейтума. Но он вел достаточно много собственных концертов, два из которых собраны на этом переиздании CD. Большая часть записей сделана на сессии с Диким Биллом Дэвисом (он играет на фортепиано вместо своего обычного органа), гитаристом Элом Кейси и барабанщиком Джо Маршаллом. Остальные песни записаны в трио с малоизвестным пианистом Джином Роджерсом и барабанщиком Джо Джонсом. Помимо таких знакомых песен, как "On Green Dolphin Street", "All the Things You Are" и "Willow Weep for Me", Стюарт предлагает несколько оригиналов, хотя ни одна из трех его работ не является особенно выдающейся. Откровенно говоря, диковинка басиста немного утомляет после нескольких треков. Музыка качает, но для того, чтобы получить удовольствие, ее нужно слушать в довольно малых дозах.

Лог создания рипа
Exact Audio Copy V0.99 prebeta 5 from 4. May 2009
Отчёт EAC об извлечении, выполненном 5. февраля 2011, 23:06
Slam Stewart / Slamboree
Дисковод: PLEXTOR DVDR PX-800A Adapter: 0 ID: 0
Режим чтения : Достоверность
Использование точного потока : Да
Отключение кэша аудио : Да
Использование указателей C2 : Нет
Коррекция смещения при чтении : 48
Способность читать области Lead-in и Lead-out : Нет
Заполнение пропущенных сэмплов тишиной : Да
Удаление блоков с тишиной в начале и конце : Нет
При вычислениях CRC использовались нулевые сэмплы : Да
Интерфейс : Установленный внешний ASPI-интерфейс
Выходной формат : Пользовательский кодировщик
Выбранный битрейт : 896 kBit/s
Качество : Высокий
Добавление ID3-тэга : Нет
Утилита сжатия : C:\Program Files\Exact Audio Copy\FLAC\FLAC.EXE
Дополнительные параметры : -8 -V -T "ARTIST=%a" -T "TITLE=%t" -T "ALBUM=%g" -T "DATE=%y" -T "TRACKNUMBER=%n" -T "GENRE=%m" -T "COMMENT=%e" %s -o %d
TOC извлечённого CD Трек | Старт | Длительность | Начальный сектор | Конечный сектор --------------------------------------------------------------------- 1 | 0:00.00 | 2:51.20 | 0 | 12844 2 | 2:51.20 | 3:22.25 | 12845 | 28019 3 | 6:13.45 | 3:46.05 | 28020 | 44974 4 | 9:59.50 | 3:38.35 | 44975 | 61359 5 | 13:38.10 | 3:47.10 | 61360 | 78394 6 | 17:25.20 | 3:11.55 | 78395 | 92774 7 | 20:37.00 | 3:35.50 | 92775 | 108949 8 | 24:12.50 | 6:49.60 | 108950 | 139684 9 | 31:02.35 | 4:42.20 | 139685 | 160854 10 | 35:44.55 | 3:13.00 | 160855 | 175329 11 | 38:57.55 | 3:28.60 | 175330 | 190989 12 | 42:26.40 | 2:47.45 | 190990 | 203559 13 | 45:14.10 | 2:24.40 | 203560 | 214399 14 | 47:38.50 | 3:12.60 | 214400 | 228859 15 | 50:51.35 | 5:01.05 | 228860 | 251439 16 | 55:52.40 | 3:44.60 | 251440 | 268299
Характеристики диапазона извлечения и сообщения об ошибках
Выбранный диапазон Имя файла G:\MY\Major Holley & Slam Stewart (5CD)\Slam Stewart - Slamboree - 1997\Slam Stewart - Slamboree.wav Пиковый уровень 99.6 % Качество диапазона 99.9 % CRC теста 6635591E CRC копии 6635591E Копирование... OK
Ошибок не произошло
AccurateRip: сводка
Трек 1 точное извлечение (доверие 2) [9C94AF20]
Трек 2 точное извлечение (доверие 2) [FCBFCDD5]
Трек 3 точное извлечение (доверие 2) [6B031C00]
Трек 4 точное извлечение (доверие 2) [1CBE5F61]
Трек 5 точное извлечение (доверие 2) [556D5B1E]
Трек 6 точное извлечение (доверие 2) [4C6BBAEF]
Трек 7 точное извлечение (доверие 2) [37980BD3]
Трек 8 точное извлечение (доверие 2) [D48C2F7D]
Трек 9 нет в базе данных
Трек 10 точное извлечение (доверие 2) [1E4B0E8E]
Трек 11 точное извлечение (доверие 2) [EA85BC53]
Трек 12 точное извлечение (доверие 2) [7EE9AC60]
Трек 13 точное извлечение (доверие 2) [5838EAE4]
Трек 14 точное извлечение (доверие 2) [377C8847]
Трек 15 точное извлечение (доверие 2) [375FE81E]
Трек 16 точное извлечение (доверие 2) [965754AD]
15 трек(и) скопированы точно 1 трек(и) не содержатся в базе AccurateRip
Некоторые треки не прошли проверку на точность
Конец отчёта
По всем вопросам пишите личное сообщение пользователю M0p94ok.
10:23
656
Нет комментариев. Ваш будет первым!