Поиск

1972 Pepper Adams with the Tommy Banks Trio - Live at the Room at the Top (2022) {Cellar Live} [24-96]

1972 Pepper Adams with the Tommy Banks Trio - Live at the Room at the Top (2022) {Cellar Live} [24-96]
Дата издания диска:
6 мая 2022
Издатель (лейбл):
Носитель:
WEB
Формат:
PCM
Тип рипа:
tracks
Контейнер:
FLAC (*.flac)
Количество каналов:
2.0
Разрядность/ЧД:
24/96
Битрейт аудио:
lossless
Наличие сканов:
только обложка

01 - Three and One 17:54
02 - Civilization and Its Discontents 17:41
03 - Patrice 19:11
04 - Oleo 19:08
05 - 'Tis 02:36
06 - Time On My Hands 17:55
07 - Stella By Starlight 12:17

Состав:
  • Baritone Saxophone – Pepper Adams
  • Drums – Tom Doran
  • Electric Bass – Bobby Cairns
  • Piano – Tommy Banks
Лог проверки качества
foobar2000 1.4.3 / Dynamic Range Meter 1.1.1
log date: 2022-05-06 22:14:07
--------------------------------------------------------------------------------
Analyzed: Pepper Adams / Live at the Room at the Top
--------------------------------------------------------------------------------
DR         Peak         RMS     Duration Track
--------------------------------------------------------------------------------
DR19      -0.20 dB   -22.08 dB     17:54 01-Three and One (Live)
DR18      -0.28 dB   -21.72 dB     17:41 02-Civilization and Its Discontents (Live)
DR16      -3.79 dB   -21.66 dB     19:11 03-Patrice (Live)
DR18      -0.95 dB   -19.92 dB     19:08 04-Oleo (Live)
DR18      -0.62 dB   -20.70 dB      2:36 05-'Tis (Live)
DR17      -2.19 dB   -21.79 dB     17:56 06-Time On My Hands (Live)
DR16      -0.80 dB   -20.26 dB     12:18 07-Stella By Starlight (Live)
--------------------------------------------------------------------------------
Number of tracks:  7
Official DR value: DR17
Samplerate:        96000 Hz
Channels:          2
Bits per sample:   24
Bitrate:           2000 kbps
Codec:             FLAC
===============================================================================
Приватный:
Нет (DHT включён)
Размер:
1.54 Гб (1,654,180,920 байт) » файлов: 11
Участники:
0 раздают, 0 качают (0 участников всего)
Внешние участники:
7 раздают, 2 качают (9 участников всего) [ Обновить ]
17:25
367
Нет комментариев. Ваш будет первым!