Поиск

1961 Leny Andrade - A Sensação (2021) {Music Manager} [24-48]

1961 Leny Andrade - A Sensação (2021) {Music Manager} [24-48]
Дата издания диска:
22 июня 2021
Издатель (лейбл):
Носитель:
WEB
Формат:
PCM
Тип рипа:
tracks
Контейнер:
FLAC (*.flac)
Количество каналов:
2.0
Разрядность/ЧД:
24/48
Битрейт аудио:
lossless
Наличие сканов:
только обложка

01 - SamBop 02:05
02 - Um Amor Igual Ao Seu 02:06
03 - Samba de Uma Notá Só 01:57
04 - Procurando Você 03:18
05 - Não Dá Pé 01:58
06 - Eu e Deus 02:58
07 - Meu Amor Foi Embora 02:48
08 - Filosofia 02:16
09 - Águas Paradas 03:18
10 - O Amor e a Rosa 03:21
11 - Canção Que Volta Só 02:17
12 - Receita Para Esquecer 01:35

Состав:
Лог проверки качества
foobar2000 1.4.6 / Dynamic Range Meter 1.1.1
log date: 2021-10-07 20:22:31
--------------------------------------------------------------------------------
Analyzed: Leny Andrade / A Sensação
--------------------------------------------------------------------------------
DR         Peak         RMS     Duration Track
--------------------------------------------------------------------------------
DR8        0.00 dB    -8.96 dB      2:06 01-SamBop
DR6        0.00 dB    -8.36 dB      2:06 02-Um Amor Igual Ao Seu
DR8        0.00 dB    -9.40 dB      1:58 03-Samba de Uma Notá Só
DR7        0.00 dB    -9.23 dB      3:19 04-Procurando Você
DR7        0.00 dB    -7.91 dB      1:58 05-Não Dá Pé
DR8        0.00 dB    -9.76 dB      2:59 06-Eu e Deus
DR6        0.00 dB    -8.23 dB      2:49 07-Meu Amor Foi Embora
DR8        0.00 dB    -8.73 dB      2:16 08-Filosofia
DR7        0.00 dB    -8.70 dB      3:19 09-Águas Paradas
DR7        0.00 dB    -8.04 dB      3:22 10-O Amor e a Rosa
DR8        0.00 dB   -10.08 dB      2:17 11-Canção Que Volta Só
DR7        0.00 dB    -8.43 dB      1:35 12-Receita Para Esquecer
--------------------------------------------------------------------------------
Number of tracks:  12
Official DR value: DR7
Samplerate:        48000 Hz
Channels:          2
Bits per sample:   24
Bitrate:           1271 kbps
Codec:             FLAC
================================================================================
12:03
350
Нет комментариев. Ваш будет первым!