Поиск

2022 Stella Matteoni - My Kinda Jazz {Matteoni} [24-44.1]

2022 Stella Matteoni - My Kinda Jazz {Matteoni} [24-44.1]
Стили:
Дата издания диска:
3 мая 2022
Носитель:
WEB
Формат:
PCM
Тип рипа:
tracks
Контейнер:
FLAC (*.flac)
Количество каналов:
2.0
Разрядность/ЧД:
24/44,1
Битрейт аудио:
lossless

Треклист:

01 - Estate 03:18
02 - The Girl from Ipanema 02:43
03 - Body and Soul 03:38
04 - Honeysuckle Rose 02:46
05 - Early Autumn 02:53

Состав:
  • Stella Matteoni — vocals
Доп. инфо:

Стелла Маттеони - певица, автор песен и музыкант, родившаяся на юге Франции. Всю свою жизнь она ходила на студии звукозаписи и за кулисы концертов во Франции. Ее отец, Гай Маттеони, - легендарный автор-аранжировщик, чья карьера берет начало в 1970-х годах. Стелла выступала для таких известных исполнителей, как Умберто Тоцци и Дэйв, который попросил Стеллу исполнить пять песен в поддержку своих концертов в Олимпии в 2014 году. Также в 2014 году Стелла была названа одной из пяти победителей международного конкурса "Be a Rockstar" от Black XS Paco Rabanne. Она записала две песни, смикшированные Дарреллом Торпом (Radiohead, Beck, Outkast...) в легендарной студии ICP в Брюсселе. Ее выступления на Неделе моды Couture в начале 2015 года получили восторженный прием у восхищенной публики.

Лог проверки качества
foobar2000 1.4.3 / Dynamic Range Meter 1.1.1
log date: 2022-05-05 16:02:07
--------------------------------------------------------------------------------
Analyzed: Stella Matteoni / My Kinda Jazz
--------------------------------------------------------------------------------
DR         Peak         RMS     Duration Track
--------------------------------------------------------------------------------
DR8       -0.50 dB   -11.38 dB      3:19 01-Estate
DR8       -0.50 dB   -10.02 dB      2:44 02-The Girl from Ipanema
DR7       -0.50 dB    -9.51 dB      3:39 03-Body and Soul
DR9       -0.50 dB   -11.41 dB      2:47 04-Honeysuckle Rose
DR7       -0.50 dB    -9.60 dB      2:54 05-Early Autumn
--------------------------------------------------------------------------------
Number of tracks:  5
Official DR value: DR8
Samplerate:        44100 Hz
Channels:          2
Bits per sample:   24
Bitrate:           1634 kbps
Codec:             FLAC
================================================================================
10:20
164
Нет комментариев. Ваш будет первым!