Поиск

1972 Chick Corea - Return To Forever (2021) {ECM} [24-96]

1972 Chick Corea - Return To Forever (2021) {ECM} [24-96]
Стили:
Дата записи диска:
2 февраля - 3 февраля 1972
Место записи:
A & R Studios, NY
Дата издания диска:
1 июля 1972
Издатель (лейбл):
Носитель:
WEB
Формат:
PCM
Тип рипа:
tracks
Контейнер:
FLAC (*.flac)
Количество каналов:
2.0
Разрядность/ЧД:
24/96
Битрейт аудио:
lossless
Время звучания:
00:46:45
Наличие сканов:
только обложка

Треклист:

01 - Return To Forever 12:14
02 - Crystal Silence 06:58
03 - What Game Shall We Play Today 04:31
04 - Sometime Ago / La Fiesta 23:14

Состав:
  • Stanley Clarke     Bass, Bass (Electric), Double Bass, Guitar (Bass)
  • Chick Corea     Composer, Piano, Piano (Electric)
  • Manfred Eicher     Producer
  • Joe Farrell     Flute, Sax (Soprano), Sax (Tenor)
  • Tony May     Engineer
  • Airto Moreira     Drums, Drums (Snare), Percussion
  • Flora Purim     Percussion, Vocals
Лог проверки качества
foobar2000 1.4.3 / Dynamic Range Meter 1.1.1
log date: 2021-07-31 19:31:27
--------------------------------------------------------------------------------
Analyzed: Chick Corea / Return To Forever
--------------------------------------------------------------------------------
DR         Peak         RMS     Duration Track
--------------------------------------------------------------------------------
DR12      -0.96 dB   -16.83 dB     12:14 01-Return To Forever
DR11      -2.05 dB   -16.89 dB      6:59 02-Crystal Silence
DR10      -2.68 dB   -14.92 dB      4:31 03-What Game Shall We Play Today
DR11      -2.11 dB   -15.42 dB     23:14 04-Sometime Ago / La Fiesta
--------------------------------------------------------------------------------
Number of tracks:  4
Official DR value: DR11
Samplerate:        96000 Hz
Channels:          2
Bits per sample:   24
Bitrate:           2769 kbps
Codec:             FLAC
================================================================================
По всем вопросам пишите личное сообщение пользователю M0p94ok.
20:49
212
Нет комментариев. Ваш будет первым!