Поиск

2021 Thomas Motter - Time {Housemaster} [24-96]

2021 Thomas Motter - Time {Housemaster} [24-96]
Стили:
Дата издания диска:
26 июля 2021
Носитель:
WEB
Формат:
PCM
Тип рипа:
tracks
Контейнер:
FLAC (*.flac)
Количество каналов:
2.0
Разрядность/ЧД:
24/96
Битрейт аудио:
lossless
Время звучания:
01:02:04
Наличие сканов:
только обложка

01. Closer 2U feat. LeNora Jaye  04:30
02. Time Is Forever feat. Fatma Tazegül  03:26
03. Eternity feat. Karl Frierson  04:56
04. Time Warp feat. Arno Haas  01:56
05. Don't Go Very Far feat. Michelle Bradshaw  03:57
06. L.o.v.e. feat. Patrice Ayivi, Vanessa Holmes  03:43
07. All Nite Long  00:27
08. Not Too Long Ago feat. Michelle Bradshaw  03:44
09. Time for Sale feat. Menoosha Susungi  04:15
10. Loving You Forever feat. Jimi Carrow  04:33
11. Marching to the Beat of _ _ _ _ feat. Daniel Denmark  03:39
12. Time feat. Menoosha Susungi  05:03
13. In Time feat. Princess Freesia  05:10
14. New Morning feat. Ty Causey  04:27
15. Rising Moon  00:43
16. One Day feat. Fatma Tazegül  03:53
17. Nite Shift feat. Vanessa Holmes, Shawnfaye Stevenson  03:34

Состав:
  • LeNora Jaye, Gesang
  • Menoosha Susungi, Gesang
  • Princess Freesia, Gesang
  • Ty Causey, Gesang
  • Karl Frieson, Gesang
  • Fatma Tazugül, Gesang
  • Michelle Bradshaw, Gesang
  • Thomas Motter, Keyboards
  • Ralf Gustke, Schlagzeug
  • Francis Hylton, Bass
  • Dany Martinez, Gitarre
  • Tomas Perez, Percussion
  • Arno Hass, Saxofon
Лог проверки качества
foobar2000 1.4.2 / Dynamic Range Meter 1.1.1
log date: 2021-07-31 21:27:13
--------------------------------------------------------------------------------
Analyzed: Thomas Motter / Time
--------------------------------------------------------------------------------
DR         Peak         RMS     Duration Track
--------------------------------------------------------------------------------
DR10      -0.53 dB   -11.69 dB      4:31 01-Closer 2U
DR9       -0.88 dB   -12.19 dB      3:26 02-Time Is Forever
DR8       -0.85 dB   -11.13 dB      4:56 03-Eternity
DR9       -1.85 dB   -12.61 dB      1:57 04-Time Warp
DR9       -0.50 dB   -10.96 dB      3:57 05-Don't Go Very Far
DR9       -1.39 dB   -11.40 dB      3:43 06-L.o.v.e.
DR10      -2.96 dB   -16.96 dB      0:27 07-All Nite Long
DR9       -1.03 dB   -11.37 dB      3:45 08-Not Too Long Ago
DR8       -1.86 dB   -11.08 dB      4:16 09-Time for Sale
DR9       -0.62 dB   -11.45 dB      4:33 10-Loving You Forever
DR8       -0.57 dB   -10.57 dB      3:40 11-Marching to the Beat of _ _ _ _
DR9       -0.55 dB   -11.15 dB      5:04 12-Time
DR8       -0.54 dB   -10.54 dB      5:11 13-In Time
DR8       -1.15 dB   -10.52 dB      4:27 14-New Morning
DR9       -1.26 dB   -14.57 dB      0:43 15-Rising Moon
DR8       -0.94 dB   -10.99 dB      3:54 16-One Day
DR11      -0.55 dB   -12.81 dB      3:35 17-Nite Shift
--------------------------------------------------------------------------------
Number of tracks:  17
Official DR value: DR9
Samplerate:        96000 Hz
Channels:          2
Bits per sample:   24
Bitrate:           2699 kbps
Codec:             FLAC
================================================================================
Скачивание доступно после регистрации!!
Приватный:
Нет (DHT включён)
Размер:
1.22 Гб (1,312,513,668 байт) » файлов: 18
Участники:
0 раздают, 0 качают (0 участников всего)
Внешние участники:
5 раздают, 1 качают (6 участников всего) [ Обновить ]
20:58
474
Нет комментариев. Ваш будет первым!