Поиск

2021 Matt Mitchell & Kate Gentile - Snark Horse {Pi} [24-44.1]

2021 Matt Mitchell & Kate Gentile - Snark Horse {Pi} [24-44.1]
Дата издания диска:
30 июля 2021
Носитель:
WEB
Формат:
PCM
Тип рипа:
tracks
Контейнер:
FLAC (*.flac)
Количество каналов:
2.0
Разрядность/ЧД:
24/44,1
Битрейт аудио:
lossless
Время звучания:
05:35:52
Наличие сканов:
только обложка

01. flock adulation 02:30
02. compartments | 's partial 09:10
03. hem(atoadaso)da 02:03
04. a pouting grimace | greasy puzzle 09:28
05. forn 05:12
06. pheromone quiz 04:15
07. deep recess 02:07
08. fertile pinwheels 04:26
09. key tettle | FLARDLE 06:07
10. igh | dogmacile 10:55
11. trapezoids | matching tickles 06:59
12. all tall ghosts 02:25
13. nudgelet 03:56
14. thumbly 16:10
15. asymptotic rest area 04:05
16. underblobb sys 04:11
17. feral pineals 04:33
18. torpid blather | fuck your capitalization style | pendulum wobbles 12:30
19. teeming molten holdings 03:16
20. thing-fact | theoretical muscle 06:49
21. adrenal halos | dog mma((t)t)gic 11:36
22. alphabotanical 02:54
23. bogs and silence 04:34
24. fickle laughing 04:42
25. for teens | spinal thought | peripheral drome 09:13
26. infractal sentences 03:09
27. glubz | spelling bad on purpose 09:53
28. garlic plastics 04:31
29. f tessellations | chimeric numbers 12:08
30. tooth helmet 05:13
31. Tørn 03:28
32. feebleau 01:50
33. fruit velvet 03:04
34. mind google | end of something 06:47
35. regular falutin' 04:25
36. supple bicepsual | is jingles | utter balbis 11:33
37. phoofaux | rejected names | high popes 15:37
38. startling and diaphanous | the gnostic and the spastic 10:05
39. B 05:28
40. strikes me as wanting to make me barf | clump 3 06:51
41. mad homonyms | phex 05:16
42. plungeon 04:20
43. ought gobs | T 09:11
44. breach zone 03:47
45. elegiac foldouts | gluey clamor 08:20
46. mighnutes 04:44
47. glue cubes | inkblot terrain | clock levitation | cat secrets | bludgement 23:46
48. catjinx 02:38
49. fettleau | a spree...canopy 15:18

Состав:
  • Kate Gentile — compositions, drums & percussion
  • Matt Mitchell — compositions, piano, modular synthesizer, Prophet-6, MicroFreak & electronics
  • Kim Cass — acoustic & electroacoustic bass
  • Ben Gerstein — trombone
  • Jon Irabagon — tenor, mezzo-soprano, sopranino, soprillo, & mezzo-soprano
  • saxophones & alto clarinet
  • Davy Lazar — trumpet, piccolo trumpet & cornet
  • Mat Maneri — viola
  • Ava Mendoza — guitar
  • Matt Nelson — tenor & alto saxophones
  • Brandon Seabrook — guitar & tenor banjo
Лог проверки качества
foobar2000 1.4.2 / Dynamic Range Meter 1.1.1
log date: 2021-07-31 22:31:46
--------------------------------------------------------------------------------
Analyzed: Matt Mitchell & Kate Gentile / Snark Horse
--------------------------------------------------------------------------------
DR         Peak         RMS     Duration Track
--------------------------------------------------------------------------------
DR10      -6.59 dB   -18.54 dB      2:30 01-flock adulation view
DR7       -1.70 dB   -11.67 dB      9:11 02-compartments | 's partial view
DR8       -1.20 dB   -10.70 dB      2:04 03-hem(atoadaso)da view
DR7       -1.70 dB   -11.71 dB      9:28 04-a pouting grimace | greasy puzzle view
DR14      -2.00 dB   -20.48 dB      5:13 05-forn view
DR9       -5.50 dB   -18.90 dB      4:15 06-pheromone quiz view
DR8       -1.50 dB   -11.65 dB      2:07 07-deep recess 02:07
DR9       -4.90 dB   -20.25 dB      4:26 08-fertile pinwheels view
DR8       -1.30 dB   -10.77 dB      6:07 09-key tettle | FLARDLE 06:07
DR10      -1.50 dB   -13.31 dB     10:56 10-igh | dogmacile view
DR9       -1.50 dB   -14.39 dB      7:00 11-trapezoids | matching tickles 06:59
DR11      -8.29 dB   -24.46 dB      2:26 12-all tall ghosts 02:25
DR9       -1.70 dB   -11.97 dB      3:57 13-nudgelet view
DR8       -1.90 dB   -12.90 dB     16:11 14-thumbly view
DR13      -1.10 dB   -17.29 dB      4:05 15-asymptotic rest area view
DR10      -4.10 dB   -16.69 dB      4:12 16-underblobb sys view
DR9       -1.40 dB   -12.44 dB      4:33 17-feral pineals view
DR7       -1.60 dB   -11.06 dB     12:31 18-torpid blather | fuck your capitalization style | pendulum wobbles view
DR10      -3.20 dB   -18.23 dB      3:17 19-teeming molten holdings view
DR9       -1.00 dB   -12.30 dB      6:49 20-thing-fact | theoretical muscle view
DR7       -2.70 dB   -12.87 dB     11:37 21-adrenal halos | dog mma((t)t)gic view
DR8       -1.30 dB   -11.24 dB      2:55 22-alphabotanical view
DR11      -4.80 dB   -17.81 dB      4:35 23-bogs and silence view
DR12      -4.60 dB   -21.86 dB      4:43 24-fickle laughing view
DR7       -1.60 dB   -12.32 dB      9:13 25-for teens | spinal thought | peripheral drome 09:13
DR14      -1.17 dB   -19.67 dB      3:09 26-infractal sentences view
DR6       -1.80 dB   -10.92 dB      9:54 27-glubz | spelling bad on purpose view
DR9       -6.10 dB   -17.60 dB      4:31 28-garlic plastics view
DR8       -2.10 dB   -12.52 dB     12:08 29-f tessellations | chimeric numbers view
DR8       -1.50 dB   -12.22 dB      5:14 30-tooth helmet 05:13
DR9       -3.70 dB   -17.19 dB      3:28 31-TГёrn view
DR8       -1.10 dB   -10.87 dB      1:51 32-feebleau view
DR13      -5.04 dB   -21.90 dB      3:05 33-fruit velvet view
DR10      -2.20 dB   -16.60 dB      6:48 34-mind google | end of something view
DR8       -2.10 dB   -11.69 dB      4:25 35-regular falutin' 04:25
DR8       -1.90 dB   -12.85 dB     11:34 36-supple bicepsual | is jingles | utter balbis view
DR8       -1.40 dB   -11.94 dB     15:37 37-phoofaux | rejected names | high popesview
DR7       -1.70 dB   -12.75 dB     10:06 38-startling and diaphanous | the gnostic and the spastic view
DR12      -5.10 dB   -19.21 dB      5:28 39-B view
DR8       -1.70 dB   -12.09 dB      6:51 40-strikes me as wanting to make me barf | clump 3 06:51
DR7       -2.00 dB   -10.71 dB      5:17 41-mad homonyms | phex view
DR9       -4.80 dB   -17.55 dB      4:20 42-plungeon view
DR8       -1.80 dB   -12.82 dB      9:11 43-ought gobs | T view
DR8       -1.60 dB   -12.44 dB      3:47 44-breach zone 03:47
DR12      -2.10 dB   -18.98 dB      8:21 45-elegiac foldouts | gluey clamor view
DR10      -5.00 dB   -18.18 dB      4:45 46-mighnutes 04:44
DR6       -1.40 dB   -10.43 dB     23:47 47-glue cubes | inkblot terrain | clock levitation | cat secrets | bludgementview
DR12      -5.70 dB   -19.95 dB      2:38 48-catjinx view
DR8       -1.30 dB   -14.78 dB     15:19 49-fettleau | a spree...canopy view
--------------------------------------------------------------------------------
Number of tracks:  49
Official DR value: DR9
Samplerate:        44100 Hz
Channels:          2
Bits per sample:   24
Bitrate:           1352 kbps
Codec:             FLAC
================================================================================
Приватный:
Нет (DHT включён)
Размер:
3.61 Гб (3,878,430,735 байт) » файлов: 50
Участники:
0 раздают, 1 качают (1 участников всего)
Внешние участники:
5 раздают, 1 качают (6 участников всего) [ Обновить ]
13:06
440
Нет комментариев. Ваш будет первым!