Поиск

1969 Chris McGregor Septet - Up To Earth (2008) {Fledg'ling FLED 3069}

1969 Chris McGregor Septet - Up To Earth (2008) {Fledg'ling FLED 3069}

Треклист:

Год выпуска диска: 7 июля 2008
Ripped from the CD: Fledg'ling FLED 3069
Производитель диска: EU
Аудио кодек: FLAC
Тип рипа: tracks+.cue
Битрейт аудио: lossless
Продолжительность: 38:02
Источник: Pedro's BTMusic, автор: headman

Треклист:
01 - Moonlight Aloa
02 - Yiptickee/Union Special
03 - Up To Earth
04 - Years Ago Now

 
EAC log

Exact Audio Copy V0.99 prebeta 4 from 23. January 2008
EAC extraction logfile from 24. February 2010, 20:25
THE CHRIS McGREGOR SEPTET / Up To Earth
Used drive : _NEC DVD_RW ND-3520A Adapter: 1 ID: 0
Read mode : Secure
Utilize accurate stream : Yes
Defeat audio cache : Yes
Make use of C2 pointers : No
Read offset correction : 48
Overread into Lead-In and Lead-Out : No
Fill up missing offset samples with silence : Yes
Delete leading and trailing silent blocks : No
Null samples used in CRC calculations : Yes
Used interface : Installed external ASPI interface
Gap handling : Appended to previous track
Used output format : User Defined Encoder
Selected bitrate : 1024 kBit/s
Quality : High
Add ID3 tag : No
Command line compressor : C:\Program Files\FLAC\flac.exe
Additional command line options : -8 -V -T "ARTIST=%a" -T "TITLE=%t" -T "ALBUM=%g" -T "DATE=%y" -T "TRACKNUMBER=%n" -T "GENRE=%m" -T "COMMENT=EAC FLAC -8" %s
TOC of the extracted CD
Track | Start | Length | Start sector | End sector
---------------------------------------------------------
1 | 0:00.00 | 10:46.24 | 0 | 48473
2 | 10:46.24 | 8:39.01 | 48474 | 87399
3 | 19:25.25 | 7:16.33 | 87400 | 120132
4 | 26:41.58 | 11:20.17 | 120133 | 171149
Track 1
Filename C:\Documents and Settings\All Users\Documents\Uploads\Ex\Chris McGregor Septet - Up To Earth (1969) [FLAC]\01 - Moonlit Aloe.wav
Pre-gap length 0:00:02.00
Peak level 98.8 %
Track quality 99.9 %
Test CRC 3DF5A1A6
Copy CRC 3DF5A1A6
Accurately ripped (confidence 1) [247FB307]
Copy OK
Track 2
Filename C:\Documents and Settings\All Users\Documents\Uploads\Ex\Chris McGregor Septet - Up To Earth (1969) [FLAC]\02 - Yickytickee.wav
Pre-gap length 0:00:05.77
Peak level 98.8 %
Track quality 99.9 %
Test CRC 00EF1523
Copy CRC 00EF1523
Accurately ripped (confidence 1) [3256D374]
Copy OK
Track 3
Filename C:\Documents and Settings\All Users\Documents\Uploads\Ex\Chris McGregor Septet - Up To Earth (1969) [FLAC]\03 - Up To Earth.wav
Pre-gap length 0:00:05.77
Peak level 98.1 %
Track quality 100.0 %
Test CRC 05CEC4C0
Copy CRC 05CEC4C0
Accurately ripped (confidence 1) [662D40E2]
Copy OK
Track 4
Filename C:\Documents and Settings\All Users\Documents\Uploads\Ex\Chris McGregor Septet - Up To Earth (1969) [FLAC]\04 - Years Ago Now,Union Special.wav
Pre-gap length 0:00:05.77
Peak level 98.3 %
Track quality 100.0 %
Test CRC 4915549F
Copy CRC 4915549F
Accurately ripped (confidence 1) [8964F1D7]
Copy OK
All tracks accurately ripped
No errors occurred
End of status report

 
.CUE

REM DISCID 2D08EA04
REM COMMENT "ExactAudioCopy v0.99pb4"
PERFORMER "THE CHRIS McGREGOR SEPTET"
TITLE "Up To Earth"
FILE "01 - Moonlit Aloe.wav" WAVE
TRACK 01 AUDIO
TITLE "Moonlit Aloe"
PERFORMER "THE CHRIS McGREGOR SEPTET"
INDEX 01 00:00:00
TRACK 02 AUDIO
TITLE "Yickytickee"
PERFORMER "THE CHRIS McGREGOR SEPTET"
INDEX 00 10:40:41
FILE "02 - Yickytickee.wav" WAVE
INDEX 01 00:00:00
TRACK 03 AUDIO
TITLE "Up To Earth"
PERFORMER "THE CHRIS McGREGOR SEPTET"
INDEX 00 08:33:18
FILE "03 - Up To Earth.wav" WAVE
INDEX 01 00:00:00
TRACK 04 AUDIO
TITLE "Years Ago Now/Union Special"
PERFORMER "THE CHRIS McGREGOR SEPTET"
INDEX 00 07:10:50
FILE "04 - Years Ago Now,Union Special.wav" WAVE
INDEX 01 00:00:00

Состав:

Evan Parker — tenor sax
Dudu Pukwana — alto sax
John Surman — baritone sax, bass clarinet
Mongezi Feza — trumpet
Chris McGregor — piano
Danny Thompson — bass on track 2
Barre Philips — bass on tracks 1,3,4
Louis Moholo — drums
John Wood Audio Engineer, Engineer
Ron Pender Audio Engineer, Engineer
Joe Boyd Audio Production, Liner Notes, Producer

08:37
608
Нет комментариев. Ваш будет первым!