Поиск

(Brazilian Soul, Funk, Disco, Pop) Cassiano - Cuban Soul - 18 Kilates (1976) - 2001, FLAC (tracks+.cue), lossless

(Brazilian Soul, Funk, Disco, Pop) Cassiano - Cuban Soul - 18 Kilates (1976) - 2001, FLAC (tracks+.cue), lossless
Треклист:
Cassiano
Cuban Soul - 18 Kilates
.

.
Жанр: Brazilian Soul, Funk, Disco, Pop | Страна: Brasil
Дата выпуска альбома / диска: 1976 / 2001 | Производитель диска: Universal, Brasil
Аудио кодек: FLAC | Тип рипа: tracks+.cue | Битрейт аудио: lossless
Формат: Studio Album, Remastered
Источник (релизер) : www
Продолжительность: 36:32
.~ TRACKLiST ~
01. Hoje É Natal (3:47)
02. Coleção (3:10)
03. Ana (3:40)
04. Onda (7:44)
05. Central do Brasil (3:41)
06. Saia Dessa Fossa (3:22)
07. De Bar em Bar (3:58)
08. Salve Essa Flor (4:18)
09. A Lua e Eu (2:50).
 
EAC
Exact Audio Copy V1.0 beta 3 from 29. August 2011
EAC extraction logfile from 23. March 2012, 17:27
Cassiano / Cuban Soul - 18 Kilates
Used drive : MATSHITADVD-RAM UJ-850S Adapter: 0 ID: 0
Read mode : Secure
Utilize accurate stream : Yes
Defeat audio cache : Yes
Make use of C2 pointers : No
Read offset correction : 102
Overread into Lead-In and Lead-Out : No
Fill up missing offset samples with silence : Yes
Delete leading and trailing silent blocks : No
Null samples used in CRC calculations : Yes
Used interface : Native Win32 interface for Win NT & 2000
Gap handling : Appended to previous track
Used output format : User Defined Encoder
Selected bitrate : 1024 kBit/s
Quality : High
Add ID3 tag : No
Command line compressor : C:\Program Files\Exact Audio Copy\Flac\flac.exe
Additional command line options : -8 -V -T "ARTIST=%artist%" -T "TITLE=%title%" -T "ALBUM=%albumtitle%" -T "DATE=%year%" -T
"TRACKNUMBER=%tracknr%" -T "GENRE=%genre%" -T "PERFORMER=%albuminterpret%" -T "COMPOSER=%composer%"
%haslyrics%--tag-from-file=LYRICS="%lyricsfile%"%haslyrics% -T "ALBUMARTIST=%albumartist%" -T "DISCNUMBER=%cdnumber%" -T
"TOTALDISCS=%totalcds%" -T "TOTALTRACKS=%numtracks%" -T "COMMENT=%comment%" %source% -o %dest%
TOC of the extracted CD
Track | Start | Length | Start sector | End sector
---------------------------------------------------------
1 | 0:00.00 | 3:47.37 | 0 | 17061
2 | 3:47.37 | 3:10.23 | 17062 | 31334
3 | 6:57.60 | 3:40.55 | 31335 | 47889
4 | 10:38.40 | 7:44.47 | 47890 | 82736
5 | 18:23.12 | 3:41.23 | 82737 | 99334
6 | 22:04.35 | 3:22.07 | 99335 | 114491
7 | 25:26.42 | 3:58.25 | 114492 | 132366
8 | 29:24.67 | 4:18.10 | 132367 | 151726
9 | 33:43.02 | 2:50.20 | 151727 | 164496
Track 1
Filename C:\EAC Rips\Cassiano - Cuban Soul (1976) [FLAC]\01 - Hoje É Natal.wav
Pre-gap length 0:00:02.00
Peak level 97.3 %
Extraction speed 1.4 X
Track quality 100.0 %
Test CRC 6F919D02
Copy CRC 6F919D02
Accurately ripped (confidence 1) [0FEFF608] (AR v1)
Copy OK
Track 2
Filename C:\EAC Rips\Cassiano - Cuban Soul (1976) [FLAC]\02 - Coleção.wav
Pre-gap length 0:00:01.33
Peak level 98.2 %
Extraction speed 1.5 X
Track quality 100.0 %
Test CRC 4B38343E
Copy CRC 4B38343E
Accurately ripped (confidence 2) [97E6AB40] (AR v1)
Copy OK
Track 3
Filename C:\EAC Rips\Cassiano - Cuban Soul (1976) [FLAC]\03 - Ana.wav
Pre-gap length 0:00:01.66
Peak level 99.8 %
Extraction speed 1.5 X
Track quality 99.9 %
Test CRC 19BBDE16
Copy CRC 19BBDE16
Accurately ripped (confidence 1) [6EFA646E] (AR v1)
Copy OK
Track 4
Filename C:\EAC Rips\Cassiano - Cuban Soul (1976) [FLAC]\04 - Onda.wav
Pre-gap length 0:00:01.77
Peak level 97.0 %
Extraction speed 2.0 X
Track quality 100.0 %
Test CRC 55F15BDD
Copy CRC 55F15BDD
Accurately ripped (confidence 1) [4D162E6F] (AR v1)
Copy OK
Track 5
Filename C:\EAC Rips\Cassiano - Cuban Soul (1976) [FLAC]\05 - Central do Brasil.wav
Pre-gap length 0:00:01.49
Peak level 99.7 %
Extraction speed 2.0 X
Track quality 100.0 %
Test CRC EC91D3C0
Copy CRC EC91D3C0
Accurately ripped (confidence 1) [8DA6058D] (AR v1)
Copy OK
Track 6
Filename C:\EAC Rips\Cassiano - Cuban Soul (1976) [FLAC]\06 - Saia Dessa Fossa.wav
Pre-gap length 0:00:01.26
Peak level 98.7 %
Extraction speed 2.1 X
Track quality 100.0 %
Test CRC 921F8B6A
Copy CRC 921F8B6A
Accurately ripped (confidence 1) [CCE96B50] (AR v1)
Copy OK
Track 7
Filename C:\EAC Rips\Cassiano - Cuban Soul (1976) [FLAC]\07 - De Bar em Bar.wav
Pre-gap length 0:00:01.16
Peak level 97.9 %
Extraction speed 2.3 X
Track quality 100.0 %
Test CRC 1E74F668
Copy CRC 1E74F668
Accurately ripped (confidence 1) [128397FF] (AR v1)
Copy OK
Track 8
Filename C:\EAC Rips\Cassiano - Cuban Soul (1976) [FLAC]\08 - Salve Essa Flor.wav
Pre-gap length 0:00:01.60
Peak level 96.7 %
Extraction speed 2.4 X
Track quality 100.0 %
Test CRC 4A02661E
Copy CRC 4A02661E
Accurately ripped (confidence 2) [2F89C0CB] (AR v1)
Copy OK
Track 9
Filename C:\EAC Rips\Cassiano - Cuban Soul (1976) [FLAC]\09 - A Lua e Eu.wav
Peak level 96.4 %
Extraction speed 2.3 X
Track quality 100.0 %
Test CRC DFCF3D65
Copy CRC DFCF3D65
Accurately ripped (confidence 2) [3E7BA40F] (AR v1)
Copy OK
All tracks accurately ripped
No errors occurred
End of status report
==== Log checksum 0504F5306F2E9094260398C589DAF138EB1F64CD9C7A2068CB5A59455CB992BD ====
 
.cue
REM GENRE Soul
REM DATE 1976
REM DISCID 67089109
REM COMMENT "ExactAudioCopy v1.0b3"
PERFORMER "Cassiano"
TITLE "Cuban Soul - 18 Kilates"
FILE "01 - Hoje e Natal.wav" WAVE
TRACK 01 AUDIO
TITLE "Hoje e Natal"
PERFORMER "Cassiano"
INDEX 01 00:00:00
TRACK 02 AUDIO
TITLE "Colecao"
PERFORMER "Cassiano"
INDEX 00 03:46:12
FILE "02 - Colecao.wav" WAVE
INDEX 01 00:00:00
TRACK 03 AUDIO
TITLE "Ana"
PERFORMER "Cassiano"
INDEX 00 03:08:48
FILE "03 - Ana.wav" WAVE
INDEX 01 00:00:00
TRACK 04 AUDIO
TITLE "Onda"
PERFORMER "Cassiano"
INDEX 00 03:38:72
FILE "04 - Onda.wav" WAVE
INDEX 01 00:00:00
TRACK 05 AUDIO
TITLE "Central do Brasil"
PERFORMER "Cassiano"
INDEX 00 07:43:10
FILE "05 - Central do Brasil.wav" WAVE
INDEX 01 00:00:00
TRACK 06 AUDIO
TITLE "Saia Dessa Fossa"
PERFORMER "Cassiano"
INDEX 00 03:40:03
FILE "06 - Saia Dessa Fossa.wav" WAVE
INDEX 01 00:00:00
TRACK 07 AUDIO
TITLE "De Bar em Bar"
PERFORMER "Cassiano"
INDEX 00 03:20:70
FILE "07 - De Bar em Bar.wav" WAVE
INDEX 01 00:00:00
TRACK 08 AUDIO
TITLE "Salve Essa Flor"
PERFORMER "Cassiano"
INDEX 00 03:56:55
FILE "08 - Salve Essa Flor.wav" WAVE
INDEX 01 00:00:00
FILE "09 - A Lua e Eu.wav" WAVE
TRACK 09 AUDIO
TITLE "A Lua e Eu"
PERFORMER "Cassiano"
INDEX 01 00:00:00
 
Audiochecker
AUDIOCHECKER v2.0 beta (build 457) - by Dester - opdester@freemail.hu
~~~~~~~~~~~~~~~~~~~~~~~~~~~~~~~~~~
Started at: понедельник, 24. 12. 2012. - 15:34.04
9 files found
1 -===- F:\01 - Hoje e Natal.flac
Extracted successfully
Conclusion: this track is CDDA with probability 100%
Tempfile successfully deleted.
2 -===- F:\02 - Colecao.flac
Extracted successfully
Conclusion: this track is CDDA with probability 100%
Tempfile successfully deleted.
3 -===- F:\03 - Ana.flac
Extracted successfully
Conclusion: this track is CDDA with probability 100%
Tempfile successfully deleted.
4 -===- F:\04 - Onda.flac
Extracted successfully
Conclusion: this track is CDDA with probability 100%
Tempfile successfully deleted.
5 -===- F:\05 - Central do Brasil.flac
Extracted successfully
Conclusion: this track is CDDA with probability 100%
Tempfile successfully deleted.
6 -===- F:\06 - Saia Dessa Fossa.flac
Extracted successfully
Conclusion: this track is CDDA with probability 100%
Tempfile successfully deleted.
7 -===- F:\07 - De Bar em Bar.flac
Extracted successfully
Conclusion: this track is CDDA with probability 100%
Tempfile successfully deleted.
8 -===- F:\08 - Salve Essa Flor.flac
Extracted successfully
Conclusion: this track is CDDA with probability 100%
Tempfile successfully deleted.
9 -===- F:\09 - A Lua e Eu.flac
Extracted successfully
Conclusion: this track is CDDA with probability 100%
Tempfile successfully deleted.
Finished at: понедельник, 24. 12. 2012. - 15:50.37 (operation time: 0:16.33)
.Сидирую до первых 10-ти скачавших. Далее раздача поддерживается силами скачавших.
Скачали сами - дайте скачать другим. .
09:37
473
Нет комментариев. Ваш будет первым!