Поиск

(Bossa Nova, Vocal Jazz, Brazilian) Elis Regina - Como & Porque (1969) - 1998, FLAC (tracks+.cue), lossless

(Bossa Nova, Vocal Jazz, Brazilian) Elis Regina - Como & Porque (1969) - 1998, FLAC (tracks+.cue), lossless
Треклист:
Elis Regina
Como & Porque
.

.
Жанр: Bossa Nova, Vocal Jazz, Brazilian | Страна: Brasil
Дата выпуска альбома / диска: 1969/1998 | Производитель диска: Philips / PolyGram, Brasil
Аудио кодек: FLAC | Тип рипа: tracks+.cue | Битрейт аудио: lossless
+ PNG art scans
Формат: Studio Album
Источник (релизер) : original CD, ripped by Flabber
Продолжительность: 29:45
.~ TRACKLiST ~
01. Aquarela do Brasil - Nega do cabelo duro (3:02)
02. O sonho (2:20)
03. Vera Cruz (2:34)
04. Casa forte (2:47)
05. Canto de Ossanha (3:25)
06. Giro (2:16)
07. O barquinho (2:06)
08. Andança (3:14)
09. Récit de cassard (2:52)
10. Samba da pergunta (1:32)
11. Memórias de Marta Saré (3:17).
 
EAC
Exact Audio Copy V1.0 beta 3 from 29. August 2011
EAC extraction logfile from 22. December 2011, 1:16
Elis Regina / Como & Porque
Used drive : ASUS DRW-24B1ST a Adapter: 3 ID: 1
Read mode : Secure
Utilize accurate stream : Yes
Defeat audio cache : Yes
Make use of C2 pointers : No
Read offset correction : 6
Overread into Lead-In and Lead-Out : No
Fill up missing offset samples with silence : Yes
Delete leading and trailing silent blocks : No
Null samples used in CRC calculations : Yes
Used interface : Native Win32 interface for Win NT & 2000
Gap handling : Appended to previous track
Used output format : User Defined Encoder
Selected bitrate : 1024 kBit/s
Quality : High
Add ID3 tag : No
Command line compressor : C:\Program Files (x86)\FLAC\flac.exe
Additional command line options : -8 -V -T "ARTIST=%artist%" -T "TITLE=%title%" -T "ALBUM=%albumtitle%" -T "DATE=%year%" -T
"TRACKNUMBER=%tracknr%" -T "TOTALTRACKS=%numtracks%" -T "GENRE=%genre%" -T "ALBUM ARTIST=%albumartist%" -T
"ALBUMARTIST=%albumartist%" -T "COMPOSER=%albumcomposer%" -T "PERFORMER=%albuminterpret%" %haslyrics%-T
"LYRICS=%lyrics%"%haslyrics% -T "COMMENT=EAC V1.0 beta 3, Secure Mode, Test & Copy, AccurateRip, FLAC -8" %source%
TOC of the extracted CD
Track | Start | Length | Start sector | End sector
---------------------------------------------------------
1 | 0:00.32 | 3:02.43 | 32 | 13724
2 | 3:03.00 | 2:20.62 | 13725 | 24286
3 | 5:23.62 | 2:34.13 | 24287 | 35849
4 | 7:58.00 | 2:47.57 | 35850 | 48431
5 | 10:45.57 | 3:25.25 | 48432 | 63831
6 | 14:11.07 | 2:16.43 | 63832 | 74074
7 | 16:27.50 | 2:06.20 | 74075 | 83544
8 | 18:33.70 | 3:14.30 | 83545 | 98124
9 | 21:48.25 | 2:52.52 | 98125 | 111076
10 | 24:41.02 | 1:32.38 | 111077 | 118014
11 | 26:13.40 | 3:17.65 | 118015 | 132854
Track 1
Filename G:\01 - Aquarela do Brasil,Nega do cabelo duro.wav
Pre-gap length 0:00:02.42
Peak level 88.1 %
Extraction speed 2.5 X
Track quality 99.9 %
Test CRC E41D7763
Copy CRC E41D7763
Accurately ripped (confidence 2) [C8165ED8] (AR v1)
Copy OK
Track 2
Filename G:\02 - O Sonho.wav
Pre-gap length 0:00:00.05
Peak level 100.0 %
Extraction speed 3.3 X
Track quality 100.0 %
Test CRC 385B8134
Copy CRC 385B8134
Accurately ripped (confidence 2) [70253C00] (AR v1)
Copy OK
Track 3
Filename G:\03 - Vera Cruz.wav
Peak level 93.5 %
Extraction speed 3.6 X
Track quality 100.0 %
Test CRC 030562D3
Copy CRC 030562D3
Accurately ripped (confidence 2) [73992826] (AR v1)
Copy OK
Track 4
Filename G:\04 - Casa Forte.wav
Pre-gap length 0:00:00.74
Peak level 91.9 %
Extraction speed 3.8 X
Track quality 100.0 %
Test CRC 2A0BF146
Copy CRC 2A0BF146
Accurately ripped (confidence 2) [08490283] (AR v1)
Copy OK
Track 5
Filename G:\05 - Canto de Ossanha.wav
Pre-gap length 0:00:00.05
Peak level 87.8 %
Extraction speed 4.2 X
Track quality 100.0 %
Test CRC 5DC6D49B
Copy CRC 5DC6D49B
Track not present in AccurateRip database
Copy OK
Track 6
Filename G:\06 - Giro.wav
Pre-gap length 0:00:00.06
Peak level 100.0 %
Extraction speed 4.1 X
Track quality 100.0 %
Test CRC A782E87D
Copy CRC A782E87D
Accurately ripped (confidence 2) [E5F2B478] (AR v1)
Copy OK
Track 7
Filename G:\07 - O Barquinho.wav
Pre-gap length 0:00:00.98
Peak level 100.0 %
Extraction speed 4.2 X
Track quality 100.0 %
Test CRC F9C862AA
Copy CRC F9C862AA
Accurately ripped (confidence 2) [580DB1B7] (AR v1)
Copy OK
Track 8
Filename G:\08 - Andanca.wav
Pre-gap length 0:00:00.33
Peak level 95.4 %
Extraction speed 4.7 X
Track quality 100.0 %
Test CRC B71DF7C0
Copy CRC B71DF7C0
Track not present in AccurateRip database
Copy OK
Track 9
Filename G:\09 - Recit de Cassard.wav
Pre-gap length 0:00:00.30
Peak level 84.7 %
Extraction speed 4.8 X
Track quality 100.0 %
Test CRC 86DBC56F
Copy CRC 86DBC56F
Track not present in AccurateRip database
Copy OK
Track 10
Filename G:\10 - Samba da pergunta.wav
Pre-gap length 0:00:00.53
Peak level 100.0 %
Extraction speed 4.3 X
Track quality 100.0 %
Test CRC 8B4219C1
Copy CRC 8B4219C1
Track not present in AccurateRip database
Copy OK
Track 11
Filename G:\11 - Memorias de Marta Sare.wav
Pre-gap length 0:00:00.49
Peak level 99.3 %
Extraction speed 4.0 X
Track quality 99.9 %
Test CRC FDBE5208
Copy CRC FDBE5208
Track not present in AccurateRip database
Copy OK
6 track(s) accurately ripped
5 track(s) not present in the AccurateRip database
Some tracks could not be verified as accurate
No errors occurred
End of status report
==== Log checksum 1A1E3CEE069AB54EA833AB2855E3F3D72CAB3F6C412DC972A347B42084A94666 ====
 
.cue
REM GENRE Latin
REM DATE 1969
REM DISCID 9006EB0B
REM COMMENT "ExactAudioCopy v1.0b3"
CATALOG 0000000000000
PERFORMER "Elis Regina"
TITLE "Como & Porque"
FILE "01 - Aquarela do Brasil - Nega do cabelo duro.wav" WAVE
TRACK 01 AUDIO
TITLE "Aquarela do Brasil/Nega do cabelo duro"
PERFORMER "Elis Regina"
PREGAP 00:00:32
INDEX 01 00:00:00
TRACK 02 AUDIO
TITLE "O Sonho"
PERFORMER "Elis Regina"
INDEX 00 03:02:39
FILE "02 - O Sonho.wav" WAVE
INDEX 01 00:00:00
FILE "03 - Vera Cruz.wav" WAVE
TRACK 03 AUDIO
TITLE "Vera Cruz"
PERFORMER "Elis Regina"
INDEX 01 00:00:00
TRACK 04 AUDIO
TITLE "Casa Forte"
PERFORMER "Elis Regina"
INDEX 00 02:33:32
FILE "04 - Casa Forte.wav" WAVE
INDEX 01 00:00:00
TRACK 05 AUDIO
TITLE "Canto de Ossanha"
PERFORMER "Elis Regina"
INDEX 00 02:47:53
FILE "05 - Canto de Ossanha.wav" WAVE
INDEX 01 00:00:00
TRACK 06 AUDIO
TITLE "Giro"
PERFORMER "Elis Regina"
INDEX 00 03:25:20
FILE "06 - Giro.wav" WAVE
INDEX 01 00:00:00
TRACK 07 AUDIO
TITLE "O Barquinho"
PERFORMER "Elis Regina"
INDEX 00 02:15:44
FILE "07 - O Barquinho.wav" WAVE
INDEX 01 00:00:00
TRACK 08 AUDIO
TITLE "Andanca"
PERFORMER "Elis Regina"
INDEX 00 02:05:70
FILE "08 - Andanca.wav" WAVE
INDEX 01 00:00:00
TRACK 09 AUDIO
TITLE "Recit de Cassard"
PERFORMER "Elis Regina"
INDEX 00 03:14:07
FILE "09 - Recit de Cassard.wav" WAVE
INDEX 01 00:00:00
TRACK 10 AUDIO
TITLE "Samba da pergunta"
PERFORMER "Elis Regina"
INDEX 00 02:52:12
FILE "10 - Samba da pergunta.wav" WAVE
INDEX 01 00:00:00
TRACK 11 AUDIO
TITLE "Memorias de Marta Sare"
PERFORMER "Elis Regina"
INDEX 00 01:32:01
FILE "11 - Memorias de Marta Sare.wav" WAVE
INDEX 01 00:00:00
 
Audiochecker
AUDIOCHECKER v2.0 beta (build 457) - by Dester - opdester@freemail.hu
~~~~~~~~~~~~~~~~~~~~~~~~~~~~~~~~~~
Started at: воскресенье, 23. 12. 2012. - 16:37.36
11 files found
01 -===- F:\01 - Aquarela do Brasil - Nega do cabelo duro.flac
Extracted successfully
Conclusion: this track is CDDA with probability 100%
Tempfile successfully deleted.
02 -===- F:\02 - O Sonho.flac
Extracted successfully
Conclusion: this track is CDDA with probability 100%
Tempfile successfully deleted.
03 -===- F:\03 - Vera Cruz.flac
Extracted successfully
Conclusion: this track is CDDA with probability 100%
Tempfile successfully deleted.
04 -===- F:\04 - Casa Forte.flac
Extracted successfully
Conclusion: this track is CDDA with probability 100%
Tempfile successfully deleted.
05 -===- F:\05 - Canto de Ossanha.flac
Extracted successfully
Conclusion: this track is CDDA with probability 100%
Tempfile successfully deleted.
06 -===- F:\06 - Giro.flac
Extracted successfully
Conclusion: this track is CDDA with probability 100%
Tempfile successfully deleted.
07 -===- F:\07 - O Barquinho.flac
Extracted successfully
Conclusion: this track is CDDA with probability 100%
Tempfile successfully deleted.
08 -===- F:\08 - Andanca.flac
Extracted successfully
Conclusion: this track is CDDA with probability 100%
Tempfile successfully deleted.
09 -===- F:\09 - Recit de Cassard.flac
Extracted successfully
Conclusion: this track is CDDA with probability 100%
Tempfile successfully deleted.
10 -===- F:\10 - Samba da pergunta.flac
Extracted successfully
Conclusion: this track is CDDA with probability 100%
Tempfile successfully deleted.
11 -===- F:\11 - Memorias de Marta Sare.flac
Extracted successfully
Conclusion: this track is CDDA with probability 100%
Tempfile successfully deleted.
Finished at: воскресенье, 23. 12. 2012. - 16:51.03 (operation time: 0:13.27)
.Сидирую до первых 10-ти скачавших. Далее раздача поддерживается силами скачавших.
Скачали сами - дайте скачать другим. .
08:37
321
Нет комментариев. Ваш будет первым!