Поиск

1968 Living Jazz - An Ode To Young Lovers (2018) {RCA, Legacy} [24-44,1]

1968 Living Jazz - An Ode To Young Lovers (2018) {RCA, Legacy} [24-44,1]
Издатель (лейбл):
Треклист:

Формат записи/Источник записи: [TR24][OF]
Наличие водяных знаков: Нет
Год издания/переиздания диска: 1968/2018
Продолжительность: 26:14
Наличие сканов в содержимом раздачи: Только обложка альбома
Источник: WRZmusic
Магазин: i-classical.com
Контейнер: FLAC (*.flac)
Тип рипа: tracks
Разрядность: 24/44,1
Формат: PCM
Количество каналов: 2.0

Треклист:
01. An Ode To Young Lovers (02:24)
02. Gone With The Wind (02:56)
03. The Frog (03:06)
04. To Sir, With Love (02:31)
05. Lush Life (02:44)
06. Hello, Young Lovers (02:24)
07. For Once In My Life (02:53)
08. The Last Waltz (02:16)
09. Serenata (02:50)
10. More Than A Miracle (02:10)

 
Лог проверки качества
foobar2000 1.3.9 / Dynamic Range Meter 1.1.1
log date: 2018-06-29 02:08:03
--------------------------------------------------------------------------------
Analyzed: Living Jazz / An Ode To Young Lovers
--------------------------------------------------------------------------------
DR         Peak         RMS     Duration Track
--------------------------------------------------------------------------------
DR11      -1.48 dB   -14.94 dB      2:24 01-An Ode To Young Lovers
DR11      -1.56 dB   -16.31 dB      2:56 02-Gone With The Wind
DR12      -2.44 dB   -16.26 dB      3:06 03-The Frog
DR10      -2.08 dB   -14.64 dB      2:31 04-To Sir, With Love
DR11      -1.50 dB   -15.41 dB      2:44 05-Lush Life
DR11      -1.54 dB   -15.82 dB      2:24 06-Hello, Young Lovers
DR9       -2.19 dB   -15.21 dB      2:53 07-For Once In My Life
DR11      -0.71 dB   -14.82 dB      2:16 08-The Last Waltz
DR11      -2.89 dB   -16.28 dB      2:50 09-Serenata
DR10      -1.10 dB   -14.41 dB      2:10 10-More Than A Miracle
--------------------------------------------------------------------------------
Number of tracks:  10
Official DR value: DR11
Samplerate:        44100 Hz
Channels:          2
Bits per sample:   24
Bitrate:           1518 kbps
Codec:             FLAC
================================================================================

 

Приватный:
Нет (DHT включён)
Размер:
292.54 Мб (306,752,327 байт) » файлов: 13
Участники:
0 раздают, 0 качают (0 участников всего)
Внешние участники:
1 раздают, 0 качают (1 участников всего) [ Обновить ]
No seeders - write a personal message to user M0p94ok. Нет сидеров - пишите личное сообщение пользователю M0p94ok.
15:03
178
Нет комментариев. Ваш будет первым!