Поиск

2018 Charles Lloyd & The Marvels + Lucinda Williams - Vanished Gardens {Blue Note} [24-96]

2018 Charles Lloyd & The Marvels + Lucinda Williams - Vanished Gardens {Blue Note} [24-96]
Стили:
Издатель (лейбл):

Треклист:

Формат записи/Источник записи: [TR24][OF]
Наличие водяных знаков: Нет
Год издания/переиздания диска: 2018
Продолжительность: 01:13:20
Наличие сканов в содержимом раздачи: Только обложка альбома
Контейнер: FLAC (*.flac)
Тип рипа: tracks
Разрядность: 24/96
Формат: PCM
Количество каналов: 2.0
Источник: i-classical.com

Треклист:
01. Defiant (8:42)
02. Dust (7:58)
03. Vanished Gardens (9:03)
04. Ventura (6:22)
05. Ballad Of The Sad Young Men (6:17)
06. We've Come Too Far To Turn Around (6:30)
07. Blues For Langston And LaRue (5:38)
08. Unsuffer Me (11:40)
09. Monk's Mood (5:16)
10. Angel (5:54)

 
Лог проверки качества
foobar2000 1.3.9 / Dynamic Range Meter 1.1.1
log date: 2018-06-29 11:07:52
--------------------------------------------------------------------------------
Analyzed: Charles Lloyd & The Marvels + Lucinda Williams / Vanished Gardens
--------------------------------------------------------------------------------
DR         Peak         RMS     Duration Track
--------------------------------------------------------------------------------
DR12      -0.20 dB   -14.47 dB      8:42 01-Defiant
DR9       -0.20 dB   -12.22 dB      7:58 02-Dust
DR9       -0.20 dB   -13.81 dB      9:03 03-Vanished Gardens
DR13      -0.20 dB   -15.90 dB      6:22 04-Ventura
DR13      -0.46 dB   -17.00 dB      6:17 05-Ballad Of The Sad Young Men
DR14      -0.20 dB   -17.12 dB      6:30 06-We've Come Too Far To Turn Around
DR12      -0.20 dB   -14.34 dB      5:38 07-Blues For Langston And LaRue
DR10      -0.20 dB   -13.55 dB     11:40 08-Unsuffer Me
DR12      -0.20 dB   -15.83 dB      5:16 09-Monk's Mood
DR13      -0.32 dB   -15.39 dB      5:54 10-Angel
--------------------------------------------------------------------------------
Number of tracks:  10
Official DR value: DR12
Samplerate:        96000 Hz
Channels:          2
Bits per sample:   24
Bitrate:           2285 kbps
Codec:             FLAC
================================================================================

 

Состав:
Download available for power users only.
16:57
642
Нет комментариев. Ваш будет первым!