Вы используете незарегистрированную версию компонента "Вкладки"!

Поиск

1968 Eddie "Lockjaw" Davis & Paul Gonsalves - Love Calls (2018) {RCA, Legacy} [24-192]

1968 Eddie "Lockjaw" Davis & Paul Gonsalves - Love Calls (2018) {RCA, Legacy} [24-192]
Стили:
Издатель (лейбл):

Треклист:

Формат записи/Источник записи: [TR24][OF]
Наличие водяных знаков: Нет
Год издания/переиздания диска: 1968/2018
Продолжительность: 36:08
Наличие сканов в содержимом раздачи: Только обложка альбома
Контейнер: FLAC (*.flac)
Тип рипа: tracks
Разрядность: 24/192
Формат: PCM
Количество каналов: 2.0
Источник: qobuz.com

Треклист:
01. Love Is Here To Stay (2:10)
02. When Sunny Gets Blue (2:57)
03. If I Ruled The World (3:08)
04. Time After Time (2:24)
05. Just Friends (5:14)
06. Don't Blame Me (2:37)
07. I Should Care (2:11)
08. The Man With The Horn (5:03)
09. We'll Be Together Again (4:10)
10. A Weaver Of Dreams (3:15)
11. If I Should Lose You (2:59)

 
Лог проверки качества
foobar2000 1.3.9 / Dynamic Range Meter 1.1.1
log date: 2018-07-08 19:10:14
--------------------------------------------------------------------------------
Analyzed: Eddie “Lockjaw” Davis / Love Calls
--------------------------------------------------------------------------------
DR         Peak         RMS     Duration Track
--------------------------------------------------------------------------------
DR8       -0.02 dB   -11.20 dB      2:10 01-Love Is Here To Stay
DR11      -0.02 dB   -14.41 dB      2:57 02-When Sunny Gets Blue
DR10      -0.02 dB   -12.08 dB      3:08 03-If I Ruled The World
DR10      -0.02 dB   -12.26 dB      2:24 04-Time After Time
DR9       -0.02 dB   -12.26 dB      5:14 05-Just Friends
DR9       -0.02 dB   -11.53 dB      2:37 06-Don't Blame Me
DR9       -0.02 dB   -11.75 dB      2:11 07-I Should Care
DR11      -0.02 dB   -13.81 dB      5:03 08-The Man With The Horn
DR11      -0.02 dB   -14.66 dB      4:10 09-We'll Be Together Again
DR11      -0.02 dB   -14.97 dB      3:15 10-A Weaver Of Dreams
DR11      -0.02 dB   -13.80 dB      2:59 11-If I Should Lose You
--------------------------------------------------------------------------------
Number of tracks:  11
Official DR value: DR10
Samplerate:        192000 Hz
Channels:          2
Bits per sample:   24
Bitrate:           5252 kbps
Codec:             FLAC
================================================================================
Состав:
Any questions - support@pro-jazz.com.
Есть вопросы - support@pro-jazz.com
15:19
1289
Нет комментариев. Ваш будет первым!