Поиск

2015 Sylvain Rifflet - Mechanics {Jazz Village} [24-48]

2015 Sylvain Rifflet - Mechanics {Jazz Village} [24-48]
Стили:
Издатель (лейбл):
Состав:
  • Alphabet Primary Artist
  • Benjamin Flament Composer, Percussion
  • Philippe Gordiani Composer, Guitar
  • Magriff Producer
  • Joce Mienniel Composer, Flute, Kalimba
  • Sylvain Rifflet Arranger, Clarinet, Composer, Homemade Instruments, Liner Notes, Producer, Saxophone

Формат записи/Источник записи: [TR24][OF]
Наличие водяных знаков: Нет
Год издания/переиздания диска: 2015
Продолжительность: 47:01
Наличие сканов в содержимом раздачи: Буклет PDF
Контейнер: FLAC (*.flac)
Тип рипа: tracks
Разрядность: 24/48
Формат: PCM
Количество каналов: 2.0
Источник: qobuz.com

Треклист:
01. 2 West 46th Street (3:39)
02. Glassicism (6:25)
03. From C (6:58)
04. Mechanics (3:40)
05. Fantoms (4:13)
06. Origamis (3:53)
07. Double (2:28)
08. Enough Fucking Guitar (2:31)
09. Elf Dance (2:14)
10. La Pastorale (5:51)
11. Tout Dit (2:36)
12. Improvisation # 1 (2:32)

 
Лог проверки качества
foobar2000 1.3.9 / Dynamic Range Meter 1.1.1
log date: 2018-07-09 12:46:59
--------------------------------------------------------------------------------
Analyzed: Sylvain Rifflet / Mechanics
--------------------------------------------------------------------------------
DR         Peak         RMS     Duration Track
--------------------------------------------------------------------------------
DR8        0.00 dB   -12.09 dB      3:39 01-2 West 46th Street
DR9        0.00 dB   -13.27 dB      6:25 02-Glassicism
DR10       0.00 dB   -14.41 dB      6:58 03-From C
DR10       0.00 dB   -13.76 dB      3:40 04-Mechanics
DR10       0.00 dB   -13.92 dB      4:13 05-Fantoms
DR11       0.00 dB   -15.13 dB      3:53 06-Origamis
DR12       0.00 dB   -14.58 dB      2:28 07-Double
DR11       0.00 dB   -14.27 dB      2:31 08-Enough Fucking Guitar
DR12      -2.41 dB   -17.79 dB      2:14 09-Elf Dance
DR11       0.00 dB   -14.59 dB      5:51 10-La Pastorale
DR12       0.00 dB   -15.82 dB      2:36 11-Tout Dit
DR10       0.00 dB   -15.69 dB      2:32 12-Improvisation # 1
--------------------------------------------------------------------------------
Number of tracks:  12
Official DR value: DR11
Samplerate:        48000 Hz
Channels:          2
Bits per sample:   24
Bitrate:           1374 kbps
Codec:             FLAC
================================================================================

 

Приватный:
Нет (DHT включён)
Размер:
495.22 Мб (519,279,843 байт) » файлов: 16
Участники:
7 раздают, 0 качают (7 участников всего)
Внешние участники:
5 раздают, 1 качают (6 участников всего) [ Обновить ]
15:34
648
RSS
Нет комментариев. Ваш будет первым!