Поиск

2018 Christian Artmann - Our Story {Sunnyside} [24-96]

2018 Christian Artmann - Our Story {Sunnyside} [24-96]
Стили:
Издатель (лейбл):
Состав:
  • Christian Artmann - flute, alto flute
  • Laszlo Gardony - piano
  • Johannes Weidenmueller - acoustic and electric bass
  • Jeff Hirshfield - drums
  • Elena McEntire - vocals

Формат записи/Источник записи: [TR24][OF]
Наличие водяных знаков: Нет
Год издания/переиздания диска: 2018
Продолжительность: 60:18
Наличие сканов в содержимом раздачи: Только обложка альбома
Контейнер: FLAC (*.flac)
Тип рипа: tracks
Разрядность: 24/88,2; 24/96
Формат: PCM
Количество каналов: 2.0
Источник: qobuz.com

Треклист:
01. The Noctambulist (5:08)
02. Earthling (4:17)
03. Quixote (6:31)
04. Our Story (7:08)
05. Amazing Grace (5:33)
06. Tropic Of Capricorn (7:21)
07. Resilience (5:42)
08. Elena (4:56)
09. Pan's Blues (5:41)
10. Always Here (8:01)

Note: Tracks "2, 7 & 8" presented in 24-bit/88,2kHz

 
Лог проверки качества
foobar2000 1.3.9 / Dynamic Range Meter 1.1.1
log date: 2018-07-08 15:52:40
--------------------------------------------------------------------------------
Analyzed: Christian Artmann / Our Story
--------------------------------------------------------------------------------
DR         Peak         RMS     Duration Track
--------------------------------------------------------------------------------
DR9       -0.73 dB   -12.12 dB      4:17 02-Earthling
DR9       -0.71 dB   -12.13 dB      5:42 07-Resilience
DR11      -0.72 dB   -14.19 dB      4:56 08-Elena
--------------------------------------------------------------------------------
Number of tracks:  3
Official DR value: DR10
Samplerate:        88200 Hz
Channels:          2
Bits per sample:   24
Bitrate:           2538 kbps
Codec:             FLAC
================================================================================
--------------------------------------------------------------------------------
Analyzed: Christian Artmann / Our Story
--------------------------------------------------------------------------------
DR         Peak         RMS     Duration Track
--------------------------------------------------------------------------------
DR11      -0.40 dB   -14.48 dB      5:08 01-The Noctambulist
DR11      -0.40 dB   -13.73 dB      6:31 03-Quixote
DR11      -0.40 dB   -13.37 dB      7:08 04-Our Story
DR12      -0.40 dB   -15.71 dB      5:33 05-Amazing Grace
DR10      -0.40 dB   -12.65 dB      7:21 06-Tropic Of Capricorn
DR12      -0.40 dB   -14.76 dB      5:41 09-Pan's Blues
DR10      -3.23 dB   -15.57 dB      8:01 10-Always Here
--------------------------------------------------------------------------------
Number of tracks:  7
Official DR value: DR11
Samplerate:        96000 Hz
Channels:          2
Bits per sample:   24
Bitrate:           2675 kbps
Codec:             FLAC
================================================================================

 

Приватный:
Нет (DHT включён)
Размер:
1.18 Гб (1,270,929,937 байт) » файлов: 13
Участники:
0 раздают, 0 качают (0 участников всего)
Внешние участники:
--- [ Обновить ]
15:07
41
RSS
Нет комментариев. Ваш будет первым!