Вы используете незарегистрированную версию компонента "Вкладки"!

Поиск

1968 Chick Corea - Now He Sings, Now He Sobs (2019) {CM Blue Note} [24-96]

1968 Chick Corea - Now He Sings, Now He Sobs (2019) {CM Blue Note} [24-96]
Стили:
Доп. инфо:

Формат записи/Источник записи: [TR24][OF]
Год издания/переиздания диска: 1968/2019
Издатель (лейбл): CM BLUE NOTE (A92)
Продолжительность: 00:40:30
Наличие сканов в содержимом раздачи: Нет

Контейнер: FLAC (*.flac)
Тип рипа: tracks
Разрядность: 24/96
Количество каналов: 2.0

Источник (релизер): Qobuz

Лог проверки качества
foobar2000 1.3.16 / Dynamic Range Meter 1.1.1
log date: 2019-04-05 20:07:50

--------------------------------------------------------------------------------
Analyzed: Chick Corea / Now He Sings, Now He Sobs
--------------------------------------------------------------------------------

DR         Peak         RMS     Duration Track
--------------------------------------------------------------------------------
DR16      -0.20 dB   -20.34 dB     13:52 01-Steps-What Was
DR15      -0.77 dB   -19.88 dB      6:30 02-Matrix
DR15      -0.71 dB   -19.91 dB      7:05 03-Now He Sings, Now He Sobs
DR17      -0.20 dB   -22.48 dB     10:36 04-Now He Beats The Drum, Now He Stops
DR19      -1.56 dB   -28.38 dB      2:29 05-The Law Of Falling And Catching Up
--------------------------------------------------------------------------------

Number of tracks:  5
Official DR value: DR17

Samplerate:        96000 Hz
Channels:          2
Bits per sample:   24
Bitrate:           2404 kbps
Codec:             FLAC
================================================================================
Any questions - support@pro-jazz.com. Есть вопросы - support@pro-jazz.com
10:48
247
Нет комментариев. Ваш будет первым!