Вы используете незарегистрированную версию компонента "Вкладки"!

Поиск

2012 Enzo Pietropaoli, Battista Lena, Fulvio Sigurta - La Notte {Fone} [DST64]

2012 Enzo Pietropaoli, Battista Lena, Fulvio Sigurta - La Notte {Fone} [DST64]
Стили:
Издатель (лейбл):
Доп. инфо:

Формат записи/Источник записи: [SACD-R][OF]
Наличие водяных знаков: Нет
Год издания/переиздания диска: 2012
Издатель (лейбл): Fonè Records
Продолжительность: 00:58:31
Наличие сканов в содержимом раздачи: Буклет PDF

Контейнер: ISO (*.iso)
Тип рипа: image
Разрядность: 64(2,8 MHz/1 Bit)
Формат: DST64
Количество каналов: 2.0

Источник (релизер): https://foneshop.it/en/home/82-la-notte-pietropaoli-lena-sigurta.html

Лог проверки качества
foobar2000 1.4.8 / Замер динамического диапазона (DR) 1.1.1
Дата отчёта:  2019-12-23 13:20:45

--------------------------------------------------------------------------------
Анализ:   Enzo Pietropaoli, Battista Lena, Fulvio Sigurtà / La Notte
--------------------------------------------------------------------------------

DR         Пики         RMS           Продолжительность трека
--------------------------------------------------------------------------------
DR13      -8.06 дБ   -27.42 дБ      6:26 01-La notte
DR12     -16.50 дБ   -32.97 дБ      2:54 02-Tre voci
DR12     -15.34 дБ   -35.03 дБ      4:27 03-Follow the heron
DR12     -16.72 дБ   -34.40 дБ      4:25 04-Agostino
DR13     -12.16 дБ   -31.42 дБ      5:44 05-L'ombra della sera
DR10     -10.66 дБ   -27.00 дБ      2:54 06-El vuelo de lobato
DR11     -10.18 дБ   -27.71 дБ      5:47 07-Peach trees
DR14      -9.04 дБ   -29.70 дБ      6:11 08-Turn out the stars
DR11     -17.00 дБ   -33.07 дБ      4:00 09-Canzone per chiamarti
DR12      -9.62 дБ   -28.52 дБ      5:01 10-Polecra's spring
DR12      -7.88 дБ   -26.60 дБ      3:31 11-Il cuore e l'azzurro
DR16      -6.77 дБ   -29.54 дБ      7:09 12-All through the night
--------------------------------------------------------------------------------

Количество треков: 12
Реальные значения DR: DR12

Частота:   2822400 Гц / Частота PCM: 88200 Гц
Каналов:   2
Разрядность:   1
Битрейт:   5645 кбит/с
Кодек:   DST64
================================================================================
Any questions - support@pro-jazz.com. Есть вопросы - support@pro-jazz.com
12:10
354
Нет комментариев. Ваш будет первым!