Вы используете незарегистрированную версию компонента "Вкладки"!

Поиск

1962 Luiz Bonfa - Plays And Sings Bossa Nova (2019) {RevOla} [24-44,1]

1962 Luiz Bonfa - Plays And Sings Bossa Nova (2019) {RevOla} [24-44,1]
Стили:
Издатель (лейбл):
Доп. инфо:

Формат записи/Источник записи: [TR24][OF]
Издание: Remastered
Год издания/переиздания диска: 1962/2019
Издатель (лейбл): RevOla
Продолжительность: 00:35:04
Наличие сканов в содержимом раздачи: Нет

Контейнер: FLAC (*.flac)
Тип рипа: tracks
Разрядность: 24/44,1
Количество каналов: 2.0

Источник (релизер): Qobuz

Лог проверки качества
foobar2000 1.4.3 / Dynamic Range Meter 1.1.1
log date: 2019-12-23 00:02:18

--------------------------------------------------------------------------------
Analyzed: Luiz Bonfa / Plays And Sings Bossa Nova
--------------------------------------------------------------------------------

DR         Peak         RMS     Duration Track
--------------------------------------------------------------------------------
DR14      -4.38 dB   -20.86 dB      2:45 01-Samba De Duas Notas
DR13      -1.97 dB   -19.63 dB      1:58 02-Vem So
DR11      -3.68 dB   -19.09 dB      2:17 03-Sambalamento
DR14      -4.47 dB   -20.53 dB      3:02 04-Tristeza
DR12      -2.90 dB   -19.17 dB      3:19 05-Manha De Carnaval
DR12      -4.87 dB   -19.77 dB      2:07 06-Silencio Do Amor
DR13      -5.45 dB   -20.30 dB      2:01 07-Domingo A Noite
DR13      -3.06 dB   -19.00 dB      3:22 08-Ilha De Coral
DR12      -2.58 dB   -19.38 dB      3:22 09-Adeus
DR14      -4.51 dB   -21.55 dB      2:28 10-Quebra Mar
DR13      -5.33 dB   -21.65 dB      2:05 11-Amor Que Acabou
DR16      -1.92 dB   -22.85 dB      3:05 12-Chora Tua Tristeza
DR13      -2.91 dB   -19.86 dB      3:20 13-Bossa Nova Cha-Cha
--------------------------------------------------------------------------------

Number of tracks:  13
Official DR value: DR13

Samplerate:        44100 Hz
Channels:          2
Bits per sample:   24
Bitrate:           1390 kbps
Codec:             FLAC
================================================================================
Any questions - support@pro-jazz.com. Есть вопросы - support@pro-jazz.com
00:44
243
Нет комментариев. Ваш будет первым!