Поиск

1967 Dexter Gordon feat. Art Taylor, Kenny Drew & Bo Stief - The Squirrel (Live at Montmartre) {Parlophone} [24-44,1]

1967 Dexter Gordon feat. Art Taylor, Kenny Drew & Bo Stief - The Squirrel (Live at Montmartre) {Parlophone} [24-44,1]
Стили:
Дата записи диска:
29 июня 1967
Место записи:
Jazzhus Montmartre, Copenhagen, Denmark
Издатель (лейбл):
Битрейт аудио:
lossless
Доп. инфо:

Формат записи/Источник записи: [TR24][OF]
Издание: Remastered
Год издания/переиздания диска: 1967/2001
Продолжительность: 01:06:12
Наличие сканов в содержимом раздачи: Нет

Контейнер: FLAC (*.flac)
Тип рипа: tracks
Разрядность: 24/44,1
Количество каналов: 2.0

Источник (релизер): HIGHRESAUDIO

Лог проверки качества
foobar2000 1.4.3 / Dynamic Range Meter 1.1.1
log date: 2020-11-10 22:45:41

--------------------------------------------------------------------------------
Analyzed: Dexter Gordon / The Squirrel (feat. Art Taylor, Kenny Drew & Bo Stief) [Live at Montmartre, Copenhagen 1967] (Remastered)
--------------------------------------------------------------------------------

DR         Peak         RMS     Duration Track
--------------------------------------------------------------------------------
DR13      -1.44 dB   -17.13 dB     15:22 01-The Squirrel (feat. Art Taylor, Kenny Drew & Bo Stief) [Live at Montmartre, Copenhagen 1967]
DR13      -0.28 dB   -16.66 dB     20:42 02-Cheese Cake (feat. Art Taylor, Kenny Drew & Bo Stief) [Live at Montmartre, Copenhagen 1967]
DR13      -2.25 dB   -18.85 dB     12:25 03-You've Changed (feat. Art Taylor, Kenny Drew & Bo Stief) [Live at Montmartre, Copenhagen 1967]
DR13      -0.65 dB   -16.28 dB     17:45 04-Sonnymoon for Two (feat. Art Taylor, Kenny Drew & Bo Stief) [Live at Montmartre, Copenhagen 1967]
--------------------------------------------------------------------------------

Number of tracks:  4
Official DR value: DR13

Samplerate:        44100 Hz
Channels:          2
Bits per sample:   24
Bitrate:           1460 kbps
Codec:             FLAC
================================================================================
No seeders - write personal message to M0p94ok. Any questions - support@pro-jazz.com.
Нет сидеров - пишите в личку M0p94ok. Есть вопросы - support@pro-jazz.com
18:15
191
Нет комментариев. Ваш будет первым!