Поиск

2011 Trio 3 - Celebrating Mary Lou Williams (Live at Birdland New York) {Intakt} [24-88,2]

2011 Trio 3 - Celebrating Mary Lou Williams (Live at Birdland New York) {Intakt} [24-88,2]
Стили:
Дата записи диска:
19 августа и 21 августа 2010
Место записи:
Birdland Jazzclub, New York City, NY, USA
Дата издания диска:
4 июля 2011
Издатель (лейбл):
Номер по каталогу:
CD 187
Носитель:
WEB
Формат:
PCM
Тип рипа:
tracks+.cue
Контейнер:
APE (*.ape)
Количество каналов:
2.0
Разрядность/ЧД:
24/88,2
Битрейт аудио:
lossless
Время звучания:
01:07:13
Наличие сканов:
да
Страна-производитель диска (релиза):
USA
Релизёр (источник):
M0p94ok
Доп. инфо:

https://trio3intakt.bandcamp.com/album/celebrating-mary-lou-williams-live-at-birdland-new-york

Трио 3 сыграло пять вечеров вместе с пианисткой Джери Аллен в Нью-Йоркском джаз-клубе Birdland, отдавая дань уважения джазовой пианистке Мэри Лу Уильямс. Они представили свежие и индивидуалистические интерпретации некоторых из самых красивых произведений "первой леди джаза". Интакт записал эти вечера.

Мэри Лу Уильямс была одной из самых известных свинговых пианисток. Она писала аранжировки для Дюка Эллингтона и играла в бесчисленных оркестрах. Её музыка выросла из регтайма через свинг и блюз, но также была ориентирована на современные гармонии. В том же году она выступала в Карнеги-Холле в дуэте с пианистом Сесилом Тейлором и Бенни Гудманом. Сегодня многие её композиции принадлежат к канону афроамериканской музыки.

Четыре великих современных джазмена: саксофонист Оливер Лейк, басист Реджи Воркман, барабанщик Эндрю Сирилл и пианист Джери Аллен - предлагают свои интерпретации таких легендарных композиций, как Roll 'Em, New Musical Express или What's Your Story, Morning Glory. Музыканты тесно связаны с Мэри Лу Уильямс. В ранние годы Эндрю Сирилл играл на барабанах в группе Мэри Лу Уильямс. А пианистка Джери Аллен сыграла роль Мэри Лу Уильямс в фильме Роберта Альтмана "Канзас-Сити".

Лог проверки качества
foobar2000 1.3.16 / Dynamic Range Meter 1.1.1
log date: 2019-04-02 15:53:41

--------------------------------------------------------------------------------
Analyzed: Gianni Valenti / Celebrating Mary Lou Williams (Live at Birdland New York) (1)
          Trio 3 / Celebrating Mary Lou Williams (Live at Birdland New York) (2-8)
--------------------------------------------------------------------------------

DR         Peak         RMS     Duration Track
--------------------------------------------------------------------------------
DR15      -0.12 dB   -17.65 dB      0:31 01-Introduction by Gianni Valenti, Birdland
DR15      -0.99 dB   -21.06 dB      9:57 02-Blues for Peter
DR16      -0.11 dB   -19.82 dB     10:25 03-Ghost Of Love
DR16      -0.11 dB   -18.90 dB     13:40 04-New Musical Express
DR16      -0.11 dB   -19.32 dB      8:41 05-Intermission
DR16      -5.98 dB   -26.05 dB      8:24 06-What's Your Story, Morning Glory?
DR14      -2.07 dB   -22.22 dB      2:54 07-Libra
DR15      -0.11 dB   -18.60 dB     12:46 08-Roll 'em
--------------------------------------------------------------------------------

Number of tracks:  8
Official DR value: DR15

Samplerate:        88200 Hz
Channels:          2
Bits per sample:   24
Bitrate:           2325 kbps
Codec:             FLAC
================================================================================
No seeders - write personal message to M0p94ok. Any questions - support@pro-jazz.com.
Нет сидеров - пишите в личку M0p94ok. Есть вопросы - support@pro-jazz.com
15:44
188
Нет комментариев. Ваш будет первым!