Поиск

1976, 1975 Earth, Wind & Fire - Spirit & That’s The Way Of The World (2020) {Dutton Vocalion} [DST64]

1976, 1975 Earth, Wind & Fire - Spirit & That’s The Way Of The World (2020) {Dutton Vocalion} [DST64]
Стили:
Издатель (лейбл):
Номер по каталогу:
CDSML8574
Битрейт аудио:
lossless
Время звучания:
01:15:48
Доп. инфо:

Формат записи/Источник записи: [SACD-R][OF]
Наличие водяных знаков: Нет
Издание: Quadraphonic, Compilation, Remastered
Год издания/переиздания диска: 1976, 1975 / 2020
Продолжительность: 01:15:48
Наличие сканов в содержимом раздачи: Только обложка альбома

Контейнер: ISO (*.iso)
Тип рипа: image
Разрядность: 64(2,8 MHz/1 Bit)
Формат: DST64
Количество каналов: 2.0 & 4.0

Источник (релизер): https://www.discogs.com/Earth-Wind-Fire-Spirit-Thats-The-Way-Of-The-World/release/14687628

 

Лог проверки качества
foobar2000 1.5.2 / Dynamic Range Meter 1.1.1
log date: 2020-09-23 11:27:04

--------------------------------------------------------------------------------
Analyzed: Earth Wind & Fire / Sprit &Thats the Way
--------------------------------------------------------------------------------

DR         Peak         RMS     Duration Track
--------------------------------------------------------------------------------
DR19      -5.03 dB   -23.20 dB      3:43 01-Getaway
DR8       -6.91 dB   -24.10 dB      4:31 02-On Your Face
DR8       -7.81 dB   -24.81 dB      5:18 03-Imagination
DR8       -6.93 dB   -24.64 dB      3:11 04-Spirit
DR9       -6.47 dB   -24.82 dB      4:00 05-Saturday Nite
DR8       -6.89 dB   -24.88 dB      4:42 06-Earth Wind & Fire
DR7      -14.60 dB   -33.18 dB      0:27 07-Departure
DR8       -6.04 dB   -23.55 dB      3:38 08-Biyo
DR9       -6.30 dB   -25.79 dB      6:55 09-Burnin Bush
DR9       -7.02 dB   -24.42 dB      2:52 10-Shining Star
DR8       -7.04 dB   -24.29 dB      5:48 11-Thats the Way of the World
DR7       -7.79 dB   -23.65 dB      3:38 12-Happy Feelin
DR8       -8.20 dB   -25.72 dB      6:40 13-All About Love
DR8       -7.45 dB   -24.58 dB      3:42 14-Yearnin Learnin
DR8       -5.89 dB   -23.71 dB      5:02 15-Reasons
DR8       -6.25 dB   -23.87 dB      5:11 16-Africano
DR7       -6.99 dB   -24.28 dB      6:30 17-See the Light
--------------------------------------------------------------------------------

Number of tracks:  17
Official DR value: DR9

Samplerate:        2822400 Hz / PCM Samplerate: 176400 Hz
Channels:          6
Bits per sample:   1
Bitrate:           16934 kbps
Codec:             DST64
================================================================================

--------------------------------------------------------------------------------
Analyzed: Earth Wind & Fire / Sprit &Thats the Way
--------------------------------------------------------------------------------

DR         Peak         RMS     Duration Track
--------------------------------------------------------------------------------
DR15      -4.18 dB   -20.71 dB      3:47 01-Getaway
DR14      -4.19 dB   -19.71 dB      4:34 02-On Your Face
DR14      -3.89 dB   -20.40 dB      5:17 03-Imagination
DR13      -4.75 dB   -21.75 dB      3:12 04-Spirit
DR14      -4.47 dB   -21.22 dB      4:03 05-Saturday Nite
DR14      -3.89 dB   -21.26 dB      4:41 06-Earth Wind & Fire
DR11     -16.80 dB   -33.24 dB      0:27 07-Departure
DR15      -4.21 dB   -20.84 dB      3:38 08-Biyo
DR15      -5.45 dB   -24.08 dB      6:46 09-Burnin Bush
DR13      -4.63 dB   -19.95 dB      2:52 10-Shining Star
DR11      -5.44 dB   -19.70 dB      5:48 11-Thats the Way of the World
DR11      -4.96 dB   -19.44 dB      3:38 12-Happy Feelin
DR11      -6.31 dB   -20.96 dB      6:40 13-All About Love
DR12      -5.00 dB   -20.26 dB      3:42 14-Yearnin Learnin
DR12      -6.44 dB   -20.80 dB      5:02 15-Reasons
DR12      -6.02 dB   -21.44 dB      5:13 16-Africano
DR11      -6.00 dB   -20.12 dB      6:27 17-See the Light
--------------------------------------------------------------------------------

Number of tracks:  17
Official DR value: DR13

Samplerate:        2822400 Hz / PCM Samplerate: 176400 Hz
Channels:          2
Bits per sample:   1
Bitrate:           5645 kbps
Codec:             DST64
================================================================================
No seeders - write personal message to M0p94ok. Any questions - support@pro-jazz.com.
Нет сидеров - пишите в личку M0p94ok. Есть вопросы - support@pro-jazz.com
19:24
237
Нет комментариев. Ваш будет первым!