Поиск

1965 Lionel Hampton and His Orchestra - Flying Home {Life Series} [24-44,1]

1965 Lionel Hampton and His Orchestra - Flying Home {Life Series} [24-44,1]
Стили:
Битрейт аудио:
lossless
Треклист:

◈ 01 - Just for You (00:03:10)
◈ 02 - Southern Echoes (00:02:38)
◈ 03 - My Wish (00:02:53)
◈ 04 - Nola (00:03:11)
◈ 05 - Royal Family (00:03:03)
◈ 06 - I Can't Believe That You're in Love with Me (00:03:12)
◈ 07 - Blues in the News (00:03:07)
◈ 08 - Exactly Like You (00:03:00)
◈ 09 - Now I Know (00:03:06)
◈ 10 - Half a Loaf Is Better Than None (00:02:55)
◈ 11 - Flying Home (00:03:10)
◈ 12 - In the Bag (00:03:21)
◈ 13 - Loose Wig (00:03:04)
◈ 14 - Chop-Chop (00:03:09)
◈ 15 - Flying Home, No. 2 (00:03:05)
◈ 16 - Boogie Woogie (Hamp's Boogie Woogie) (00:03:15)
◈ 17 - Million Dollar Smile (00:03:02)
◈ 18 - The Lamplighter (00:03:03)
◈ 19 - Overtime (00:02:55)
◈ 20 - Tempo's Boogie (00:03:05)

Доп. инфо:

• Формат записи | Источник записи: [TR24][OF]
• Наличие водяных знаков: Нет
• Год издания релиза: 1965
• Лейбл: Life Series
• Продолжительность: 01:01:34
• Источник: internet
• WEB релиз: ссылка
• Контейнер: FLAC (*.flac)
• Тип рипа: tracks
• Разрядность: 24/44,1
• Формат: PCM
• Количество каналов: 2.0
• Наличие сканов: front

Лог проверки качества
foobar2000 1.4.2 / Замер динамического диапазона (DR) 1.1.1
Дата отчёта:  2020-03-11 09:26:15

--------------------------------------------------------------------------------
Анализ:   Lionel Hampton Orchestra / Flying Home
--------------------------------------------------------------------------------

DR         Пики         RMS           Продолжительность трека
--------------------------------------------------------------------------------
DR12      -1.22 дБ   -15.50 дБ      3:11 01-Just for You
DR13      -1.22 дБ   -15.74 дБ      2:38 02-Southern Echoes
DR10      -1.22 дБ   -14.27 дБ      2:53 03-My Wish
DR11      -1.21 дБ   -14.36 дБ      3:11 04-Nola
DR10      -1.21 дБ   -12.10 дБ      3:04 05-Royal Family
DR11      -1.21 дБ   -13.34 дБ      3:12 06-I Can't Believe That You're in Love with Me
DR10      -1.21 дБ   -12.74 дБ      3:08 07-Blues in the News
DR11      -1.21 дБ   -13.34 дБ      3:01 08-Exactly Like You
DR11      -1.21 дБ   -15.51 дБ      3:07 09-Now I Know
DR11      -1.21 дБ   -15.10 дБ      2:56 10-Half a Loaf Is Better Than None
DR10      -1.21 дБ   -13.23 дБ      3:10 11-Flying Home
DR9       -1.21 дБ   -12.00 дБ      3:21 12-In the Bag
DR10      -1.21 дБ   -12.93 дБ      3:04 13-Loose Wig
DR9       -1.21 дБ   -12.09 дБ      3:09 14-Chop-Chop
DR9       -1.21 дБ   -11.38 дБ      3:06 15-Flying Home, No. 2
DR10      -1.21 дБ   -13.01 дБ      3:16 16-Boogie Woogie (Hamp's Boogie Woogie)
DR9       -1.21 дБ   -11.73 дБ      3:03 17-Million Dollar Smile
DR9       -1.21 дБ   -12.01 дБ      3:03 18-The Lamplighter
DR10      -1.21 дБ   -12.01 дБ      2:56 19-Overtime
DR10      -1.21 дБ   -13.64 дБ      3:06 20-Tempo's Boogie
--------------------------------------------------------------------------------

Количество треков: 20
Реальные значения DR: DR10

Частота:   44100 Гц
Каналов:   2
Разрядность:   24
Битрейт:   1339 кбит/с
Кодек:   FLAC
================================================================================
По всем вопросам пишите личное сообщение пользователю M0p94ok.
22:10
487
Нет комментариев. Ваш будет первым!