Вы используете незарегистрированную версию компонента "Вкладки"!

Поиск

2020 John Stein - Watershed {Whaling City Sound WCS121} [24-44,1]

2020 John Stein - Watershed {Whaling City Sound WCS121} [24-44,1]
Дата записи диска:
27-28 мая 2019
Место записи:
Soundfigure Producoes, Sao Paulo, Brazil
Издатель (лейбл):
Номер по каталогу:
WCS121
Битрейт аудио:
lossless
Доп. инфо:

• Формат записи | Источник записи: [TR24][OF]
• Наличие водяных знаков: Нет
• Год издания релиза: 2020
• Продолжительность: 00:59:00
• Источник: internet
• WEB релиз: ссылка
• Контейнер: FLAC (*.flac)
• Тип рипа: tracks
• Разрядность: 24/44,1
• Формат: PCM
• Количество каналов: 2.0
• Наличие сканов: front

Лог проверки качества
foobar2000 1.4.2 / Замер динамического диапазона (DR) 1.1.1
Дата отчёта:  2020-03-12 09:50:13

--------------------------------------------------------------------------------
Анализ:   John Stein / Watershed
--------------------------------------------------------------------------------

DR         Пики         RMS           Продолжительность трека
--------------------------------------------------------------------------------
DR10      -0.30 дБ   -11.30 дБ      4:23 01-Rio Escuro
DR9       -0.30 дБ   -11.15 дБ      4:51 02-Kobe
DR11      -0.30 дБ   -12.85 дБ      6:15 03-A Taste of Honey
DR10      -0.30 дБ   -11.51 дБ      5:20 04-Brazilian Hug
DR11      -0.30 дБ   -15.07 дБ      6:20 05-Mystified
DR10      -0.30 дБ   -11.85 дБ      4:53 06-Wally
DR11      -0.30 дБ   -12.42 дБ      4:35 07-The Kicker
DR10      -0.80 дБ   -13.01 дБ      4:21 08-Waltz New
DR11      -0.30 дБ   -13.42 дБ      6:33 09-Cisco
DR11      -0.30 дБ   -14.15 дБ      5:08 10-Dreamsville (From "Peter Gunn")
DR9       -0.30 дБ   -11.45 дБ      4:14 11-Charlotte
DR10      -0.30 дБ   -11.81 дБ      2:06 12-The Hang
--------------------------------------------------------------------------------

Количество треков: 12
Реальные значения DR: DR10

Частота:   44100 Гц
Каналов:   2
Разрядность:   24
Битрейт:   1591 кбит/с
Кодек:   FLAC
================================================================================
Any questions - support@pro-jazz.com. Есть вопросы - support@pro-jazz.com
16:25
310
Нет комментариев. Ваш будет первым!