Вы используете незарегистрированную версию компонента "Вкладки"!

Поиск

2020 Jim Snidero - Project-K {Savant} [24-44,1]

2020 Jim Snidero - Project-K {Savant} [24-44,1]
Дата записи диска:
31 августа 2019
Место записи:
Samurai Hotel Recording, Queens, NY
Дата издания диска:
24 января 2020
Издатель (лейбл):
Битрейт аудио:
lossless
Доп. инфо:

• Формат записи | Источник записи: [TR24][OF]
• Наличие водяных знаков: Нет
• Год издания релиза: 2020
• Продолжительность: 00:53:26
• Источник: internet
• WEB релиз: ссылка
• Контейнер: FLAC (*.flac)
• Тип рипа: tracks
• Разрядность: 24/44,1
• Формат: PCM
• Количество каналов: 2.0
• Наличие сканов: booklet

Лог проверки качества
foobar2000 1.4.2 / Замер динамического диапазона (DR) 1.1.1
Дата отчёта:  2020-03-12 09:49:43

--------------------------------------------------------------------------------
Анализ:   Jim Snidero / Project-K
--------------------------------------------------------------------------------

DR         Пики         RMS           Продолжительность трека
--------------------------------------------------------------------------------
DR11      -0.73 дБ   -15.20 дБ      7:46 01-Han
DR9       -0.70 дБ   -12.89 дБ      6:50 02-DMZ
DR15      -0.80 дБ   -18.97 дБ      6:49 03-Jeju
DR13      -0.72 дБ   -18.00 дБ      5:57 04-Mother
DR9       -0.72 дБ   -13.11 дБ      5:41 05-Jenga
DR10      -0.76 дБ   -13.28 дБ      6:44 06-Seoulful
DR11      -0.71 дБ   -14.50 дБ      7:10 07-Goofy
DR15      -1.36 дБ   -20.45 дБ      6:30 08-Han O Bak Nyun
--------------------------------------------------------------------------------

Количество треков: 8
Реальные значения DR: DR12

Частота:   44100 Гц
Каналов:   2
Разрядность:   24
Битрейт:   1242 кбит/с
Кодек:   FLAC
================================================================================
Any questions - support@pro-jazz.com. Есть вопросы - support@pro-jazz.com
23:38
295
Нет комментариев. Ваш будет первым!