Вы используете незарегистрированную версию компонента "Вкладки"!

Поиск

1963 Sonny Stitt And Paul Gonsalves - Salt And Pepper (2011) {Impulse!, Analogue Productions} [DSD64]

1963 Sonny Stitt And Paul Gonsalves - Salt And Pepper (2011) {Impulse!, Analogue Productions} [DSD64]
Стили:
Место записи:
Van Gelder Recording Studio, Englewood Cliffs, New Jersey
Издатель (лейбл):
Битрейт аудио:
lossless
Доп. инфо:

Формат записи/Источник записи: [DSD][SACD-R]
Наличие водяных знаков: Нет
Год издания/переиздания диска: 1963/2011
Продолжительность: 35:45
Наличие сканов в содержимом раздачи: Только обложка альбома
Источник (релизер): SACD

Контейнер: DSF (*.dsf)
Тип рипа: tracks
Разрядность: 64(2,8 MHz/1 Bit)
Формат: DSD
Количество каналов: 2.0

Лог проверки качества
foobar2000 1.3.15 / Dynamic Range Meter 1.1.1
log date: 2017-10-06 10:56:36

--------------------------------------------------------------------------------
Analyzed: Sonny Stitt and Paul Gonsalves / Salt and Pepper
--------------------------------------------------------------------------------

DR         Peak         RMS     Duration Track
--------------------------------------------------------------------------------
DR13      -6.68 dB   -23.58 dB      7:56 01-Salt & Pepper
DR14      -6.28 dB   -24.83 dB      6:23 02-S'posin'
DR13      -6.52 dB   -24.61 dB      2:28 03-Theme from Lord Of The Flies
DR13      -7.48 dB   -25.07 dB     12:43 04-Perdido
DR12      -9.27 dB   -26.51 dB      6:15 05-Stardust
--------------------------------------------------------------------------------

Number of tracks:  5
Official DR value: DR13

Samplerate:        2822400 Hz / PCM Samplerate: 88200 Hz
Channels:          2
Bits per sample:   24
Bitrate:           5645 kbps
Codec:             DSD64
================================================================================
Any questions - support@pro-jazz.com. Есть вопросы - support@pro-jazz.com
13:17
268
Нет комментариев. Ваш будет первым!