Вы используете незарегистрированную версию компонента "Вкладки"!

Поиск

1959 Eddie ''Lockjaw'' Davis - Bacalao! {RevOla} [24-44,1]

1959 Eddie ''Lockjaw'' Davis - Bacalao! {RevOla} [24-44,1]
Место записи:
Van Gelder Recording Studio, Englewood Cliffs, New Jersey
Издатель (лейбл):
Битрейт аудио:
lossless
Доп. инфо:

Формат записи/Источник записи: [TR24][OF]
Издание: Remastered
Год издания/переиздания диска: 1959/2019
Издатель (лейбл): RevOla
Продолжительность: 00:43:26
Наличие сканов в содержимом раздачи: Нет

Контейнер: FLAC (*.flac)
Тип рипа: tracks
Разрядность: 24/44,1
Количество каналов: 2.0

Источник (релизер): Qobuz

Лог проверки качества
foobar2000 1.3.16 / Dynamic Range Meter 1.1.1
log date: 2019-05-12 15:25:14

--------------------------------------------------------------------------------
Analyzed: Eddie "Lockjaw" Davis / Bacalao!
--------------------------------------------------------------------------------

DR         Peak         RMS     Duration Track
--------------------------------------------------------------------------------
DR12      -1.38 dB   -15.88 dB      5:07 01-Last Train From Overbrook
DR13      -1.22 dB   -17.25 dB      6:24 02-Sometimes I'm Happy
DR11      -1.04 dB   -14.75 dB      5:03 03-That Old Black Magic
DR11      -1.18 dB   -14.73 dB      4:35 04-Fast Spiral
DR12      -1.41 dB   -16.31 dB      5:30 05-Dobbin' With Redd Foxx
DR12      -1.04 dB   -15.39 dB      4:54 06-Come Rain Or Come Shine
DR12      -1.00 dB   -15.64 dB      5:34 07-Dansero
DR13      -1.24 dB   -17.23 dB      6:23 08-When Your Lover Has Gone
--------------------------------------------------------------------------------

Number of tracks:  8
Official DR value: DR12

Samplerate:        44100 Hz
Channels:          2
Bits per sample:   24
Bitrate:           1539 kbps
Codec:             FLAC
================================================================================
Any questions - support@pro-jazz.com. Есть вопросы - support@pro-jazz.com
13:30
481
Нет комментариев. Ваш будет первым!