Вы используете незарегистрированную версию компонента "Вкладки"!

Поиск

2020 Wolfgang Muthspiel – Angular Blues {ECM} [24-96]

2020 Wolfgang Muthspiel – Angular Blues {ECM} [24-96]
Издатель (лейбл):
Битрейт аудио:
lossless
Доп. инфо:

Формат записи/Источник записи: [TR24][OF]
Наличие водяных знаков: Нет
Год издания: 2020
Продолжительность: 00:53:49
Наличие сканов в содержимом раздачи: Буклет PDF
Источник (релизер): qobuz
Контейнер: FLAC (*.flac)
Тип рипа: tracks
Разрядность: 24/96
Формат: PCM
Количество каналов: 2.0

Лог проверки качества
foobar2000 1.3.7 / Dynamic Range Meter 1.1.1
log date: 2020-03-20 11:53:23

––––––––––––––––––––––––––––––––––––––––
Analyzed: Wolfgang Muthspiel / Angular Blues
––––––––––––––––––––––––––––––––––––––––

DR Peak RMS Duration Track
––––––––––––––––––––––––––––––––––––––––
DR13 -1.96 dB -18.90 dB 7:20 01-Wondering
DR14 -1.96 dB -19.22 dB 5:56 02-Angular Blues
DR16 -3.16 dB -22.94 dB 5:15 03-Hüttengriffe
DR14 -1.98 dB -20.20 dB 7:42 04-Camino
DR12 -1.95 dB -15.99 dB 3:51 05-Ride
DR14 -1.97 dB -18.32 dB 6:53 06-Everything I Love
DR11 -1.94 dB -15.66 dB 7:42 07-Kanon in 6/8
DR11 -5.72 dB -20.48 dB 3:34 08-Solo Kanon in 5/4
DR13 -1.97 dB -17.95 dB 5:41 09-I'll Remember April
––––––––––––––––––––––––––––––––––––––––

Number of tracks: 9
Official DR value: DR13

Samplerate: 96000 Hz
Channels: 2
Bits per sample: 24
Bitrate: 2479 kbps
Codec: FLAC
================================================================================
Any questions - support@pro-jazz.com. Есть вопросы - support@pro-jazz.com
13:08
234
Нет комментариев. Ваш будет первым!